Торрент файл
скачать торрент магнет ссылка Добавлен: 22 янв 2017, 13:10
Размер: 4.4 ГБ
Сидеров: 25
Личеров: 4
Статус: (salma3)
Автор

СообщениеДобавлено: 22 янв 2017, 13:10 

Не в сети
Супермодератор
Аватара пользователя
Дата регистрации:
15 фев 2012, 16:44
Возраст: 28
Спасибо: 7290 / 2147
Сообщения: 70480
Год выхода: 1990
Страна: США
Студия: Hudlin Brothers, The, Jackson/McHenry Company,The, New Line Cinema
Продолжительность: 01:44:05
Жанр: мелодрама, комедия, музыка
Режиссер: Реджинальд Хадлин

В ролях: Кристофер Рид, Робин Харрис, Кристофер Мартин, Мартин Лоуренс, Тиша Кэмпбелл, Эдриенн-Джой Джонсон, Пол Энтони, Бау-Леггд Лу, Би-Файн, Эдит Филдс, ...

Перевод:
- Профессиональный (многоголосный, закадровый) ВГТРК
- Авторский (одноголосый, закадровый) Горчаков Василий Овидиевич

О фильме: Плэй собирается устроить у себя вечеринку и зазывает на нее половину «черного» квартала. Его друзья, Бэлал и Кид, придут туда крутить диски и читать рэп. Вместе с ними собирается придти пара внимательных полицейских, доведенный до отчаяния сосед Плэя с супругой и трое местных головорезов. У последних в программе вечера намечен поджог хозяйского дома…



Кодек: MPEG4/ISO/AVC
Качество: WEB-DL 1080p
Видео: 1916x1076, 5157 kbps, 23,976 fps
Аудио #1: AC-3, 2 ch, 192 kbps (Rus) - MVO ВГТРК
Аудио #2: AC-3, 2 ch, 192 kbps (Rus) - AVO Горчаков Василий Овидиевич
Аудио #3: AC-3, 6 ch, 384 kbps (Eng)
Субтитры: Английские

Общее
Уникальный идентификатор : 212864269057156491772391044636875515719 (0xA0242ABFA467339DA066EDD04AB96747)
Полное имя : Домашняя вечеринка 1 (House Party) 1990 WEB-DL 1080p.mkv
Формат : Matroska
Версия формата : Version 2
Размер файла : 4,40 Гбайт
Продолжительность : 1 ч. 44 м.
Общий поток : 6046 Кбит/сек
Дата кодирования : UTC 2017-01-18 06:30:05
Программа кодирования : mkvmerge v4.0.0 ('The Stars were mine') сборка от Jun 6 2010 16:18:42
Библиотека кодирования : libebml v1.0.0 + libmatroska v1.0.0
Видео
Идентификатор : 1
Формат : AVC
Формат/Информация : Advanced Video Codec
Профиль формата : High@L4.0
Параметр CABAC формата : Да
Параметр ReFrames формата : 4 кадра
Идентификатор кодека : V_MPEG4/ISO/AVC
Продолжительность : 1 ч. 44 м.
Битрейт : 5157 Кбит/сек
Ширина : 1916 пикселей
Высота : 1076 пикселей
Соотношение сторон : 16:9
Режим частоты кадров : Постоянный
Частота кадров : 23,976 кадра/сек
Цветовое пространство : YUV
Субдискретизация насыщенности : 4:2:0
Битовая глубина : 8 бит
Тип развёртки : Прогрессивная
Бит/(Пиксели*Кадры) : 0.104
Размер потока : 3,75 Гбайт (85%)
Язык : English
Default : Нет
Forced : Нет
Основные цвета : BT.709
Характеристики трансфера : BT.709
Коэффициенты матрицы : BT.709
Аудио #1
Идентификатор : 2
Формат : AC-3
Формат/Информация : Audio Coding 3
Расширение режима : CM (complete main)
Параметр Endianness формата : Big
Идентификатор кодека : A_AC3
Продолжительность : 1 ч. 44 м.
Вид битрейта : Постоянный
Битрейт : 192 Кбит/сек
Каналы : 2 канала
Расположение каналов : Front: L R
Частота : 48,0 КГц
Битовая глубина : 16 бит
Метод сжатия : С потерями
Размер потока : 143 Мбайт (3%)
Заголовок : MVO ВГТРК
Язык : Russian
Default : Нет
Forced : Нет
Аудио #2
Идентификатор : 3
Формат : AC-3
Формат/Информация : Audio Coding 3
Расширение режима : CM (complete main)
Параметр Endianness формата : Big
Идентификатор кодека : A_AC3
Продолжительность : 1 ч. 44 м.
Вид битрейта : Постоянный
Битрейт : 192 Кбит/сек
Каналы : 2 канала
Расположение каналов : Front: L R
Частота : 48,0 КГц
Битовая глубина : 16 бит
Метод сжатия : С потерями
Размер потока : 143 Мбайт (3%)
Заголовок : AVO Горчаков Василий Овидиевич
Язык : Russian
Default : Нет
Forced : Нет
Аудио #3
Идентификатор : 4
Формат : AC-3
Формат/Информация : Audio Coding 3
Расширение режима : CM (complete main)
Параметр Endianness формата : Big
Идентификатор кодека : A_AC3
Продолжительность : 1 ч. 44 м.
Вид битрейта : Постоянный
Битрейт : 384 Кбит/сек
Каналы : 6 каналов
Расположение каналов : Front: L C R, Side: L R, LFE
Частота : 48,0 КГц
Битовая глубина : 16 бит
Метод сжатия : С потерями
Размер потока : 286 Мбайт (6%)
Язык : English
Default : Нет
Forced : Нет
Текст
Идентификатор : 5
Формат : UTF-8
Идентификатор кодека : S_TEXT/UTF8
Идентификатор кодека/Информация : UTF-8 Plain Text
Язык : English
Default : Нет
Forced : Нет



_________________
Проголосуй за трекер Открытый торрент трекер - RUS-MEDIA.ORG

Проголосуй Открытый торрент трекер - RUS-MEDIA.ORG


Вернуться к началу
 Профиль Отправить личное сообщение  
 
   Похожие торренты   Автор   Торрент   Размер 
В этой теме нет новых непрочитанных сообщений. Кровавая вечеринка 3 / Slumber Party Massacre III [ужасы, комедия, 1990] BDRip 1080p, Avo

salma3

31 | 28

7.41 ГБ

В этой теме нет новых непрочитанных сообщений. Вечеринка / The Party [драма, комедия, 2017] BDRip 1080p, Mvo [Jaskier]

salma3

0 | 0

6.78 ГБ

В этой теме нет новых непрочитанных сообщений. Кровавая вечеринка / The Slumber Party Massacre [ужасы, комедия, 1982] BDRip 1080p, Avo

salma3

57 | 17

7.4 ГБ

В этой теме нет новых непрочитанных сообщений. Кровавая вечеринка 2 / Slumber Party Massacre II [ужасы, комедия, 1987] BDRip 1080p, Avo

salma3

26 | 8

6.4 ГБ

В этой теме нет новых непрочитанных сообщений. Cвадебная вечеринка / The Wedding Party (Зане Эконому / Thane Economou) [2016г., мелодрама, комедия, WEB-DLRip] MVO

Alfredovich

0 | 0

1.37 ГБ

В этой теме нет новых непрочитанных сообщений. Вечеринка на яхте / Party Boat [комедия, 2017] WEBRip, Mvo

salma3

484 | 48

1.37 ГБ

В этой теме нет новых непрочитанных сообщений. Вечеринка / The Party [драма, комедия, 2017] HDRip, Mvo [Jaskier]

salma3

0 | 0

1.36 ГБ


Начать новую тему Ответить на тему  [ 1 сообщение ] 




Для Мосгорсуда, Роскомнадзора и рекламодателей:: mosgorsud-torrent[собачка]yandex.ru
cron