Торрент файл
скачать торрент магнет ссылка Добавлен: 22 янв 2017, 13:04
Размер: 10.17 ГБ
Сидеров: 27
Личеров: 15
Статус: (salma3)
Автор

СообщениеДобавлено: 22 янв 2017, 13:04 

Не в сети
Супермодератор
Аватара пользователя
Дата регистрации:
15 фев 2012, 16:44
Возраст: 28
Спасибо: 6563 / 2129
Сообщения: 43556
Год выхода: 2000
Жанр: Фантастика, мелодрама, комедия
Режиссер: Питер Сигал

В ролях: Эдди Мёрфи, Джанет Джексон, Ларри Миллер, Джон Алес, Ричард Гант, Анна Мария Хорсфорд, Мелинда Магроу, Ямал Миксон, Гэбриел Уильямс, Эрл Боэн, Крис Эллиотт

О фильме:
Симпатяге Шерману повезло вдвойне! Во-первых, профессор изобрел чудесный омолаживающий эликсир, за который ему уже предложили астрономическую сумму. Во-вторых, Кламп «втюрился по уши» в обворожительную преподавательницу Дениз Гэйнс. И, что самое главное, прекрасная Дениз отвечает Шерману взаимностью. Тут, казалось бы, и сказке конец… ан нет. Прячущийся в тучном теле профессора сексуально одержимый нахал Бадди Лав, альтер-эго скромника Клампа, вырывается наружу, чтобы перевернуть все с ног на голову!



Страна: США
Продолжительность: 01:46:47
Перевод: Дубляж

Файл
Кодек: h.264
Качество: BDRip 1080p
Видео: MPEG-4 AVC, 1920x1040, 12550 Кбит/с, 23.976 кадр/с
Аудио1: Русский ( AC3, 6ch, 448 Кбит/с, 48.0 KHz) Дублированный
Аудио2: Английский ( AC3, 6ch, 640 Кбит/с, 48.0 KHz)


General
Unique ID : 181987713635163128603040057462341672262 (0x88E98F084703393B862A35D291069D46)
Complete name : Nutty.Professor.II.The.Klumps.BDRip.1080p.mkv
Format : Matroska
Format version : Version 4 / Version 2
File size : 10.2 GiB
Duration : 1 h 46 min
Overall bit rate : 13.6 Mb/s
Encoded date : UTC 2017-01-20 20:32:30
Writing application : mkvmerge v7.8.0 ('River Man') 64bit built on Mar 27 2015 16:31:37
Writing library : libebml v1.3.1 + libmatroska v1.4.2
Cover : Yes
Attachments : cover.jpg
Video
ID : 1
Format : AVC
Format/Info : Advanced Video Codec
Format profile : High@L4.1
Format settings, CABAC : Yes
Format settings, ReFrames : 4 frames
Codec ID : V_MPEG4/ISO/AVC
Duration : 1 h 46 min
Bit rate : 12.6 Mb/s
Width : 1 920 pixels
Height : 1 040 pixels
Display aspect ratio : 1.85:1
Frame rate mode : Constant
Frame rate : 23.976 (24000/1001) FPS
Color space : YUV
Chroma subsampling : 4:2:0
Bit depth : 8 bits
Scan type : Progressive
Bits/(Pixel*Frame) : 0.262
Stream size : 9.36 GiB (92%)
Title : Video
Writing library : x264 core 148 r2705 3f5ed56
Encoding settings : cabac=1 / ref=4 / deblock=1:-3:-3 / analyse=0x3:0x133 / me=umh / subme=9 / psy=1 / psy_rd=1.10:0.00 / mixed_ref=1 / me_range=32 / chroma_me=1 / trellis=2 / 8x8dct=1 / cqm=0 / deadzone=21,11 / fast_pskip=1 / chroma_qp_offset=-2 / threads=24 / lookahead_threads=2 / sliced_threads=0 / nr=0 / decimate=1 / interlaced=0 / bluray_compat=0 / constrained_intra=0 / bframes=3 / b_pyramid=2 / b_adapt=2 / b_bias=0 / direct=3 / weightb=1 / open_gop=0 / weightp=2 / keyint=240 / keyint_min=24 / scenecut=40 / intra_refresh=0 / rc_lookahead=60 / rc=2pass / mbtree=1 / bitrate=12550 / ratetol=1.0 / qcomp=0.60 / qpmin=0 / qpmax=69 / qpstep=4 / cplxblur=20.0 / qblur=0.5 / ip_ratio=1.40 / aq=3:0.80
Language : English
Default : Yes
Forced : No
Audio #1
ID : 2
Format : AC-3
Format/Info : Audio Coding 3
Mode extension : CM (complete main)
Format settings, Endianness : Big
Codec ID : A_AC3
Duration : 1 h 46 min
Bit rate mode : Constant
Bit rate : 448 kb/s
Channel(s) : 6 channels
Channel positions : Front: L C R, Side: L R, LFE
Sampling rate : 48.0 kHz
Frame rate : 31.250 FPS (1536 spf)
Bit depth : 16 bits
Compression mode : Lossy
Stream size : 342 MiB (3%)
Title : Audio 1
Language : Russian
Default : Yes
Forced : No
Audio #2
ID : 3
Format : AC-3
Format/Info : Audio Coding 3
Mode extension : CM (complete main)
Format settings, Endianness : Big
Codec ID : A_AC3
Duration : 1 h 46 min
Bit rate mode : Constant
Bit rate : 640 kb/s
Channel(s) : 6 channels
Channel positions : Front: L C R, Side: L R, LFE
Sampling rate : 48.0 kHz
Frame rate : 31.250 FPS (1536 spf)
Bit depth : 16 bits
Compression mode : Lossy
Stream size : 489 MiB (5%)
Title : Audio 2
Language : English
Default : No
Forced : No
Menu
00:00:00.000 : en:The Wedding
00:05:07.307 : en:Klump in Charge
00:09:48.505 : en:The Fountain of Youth
00:11:11.003 : en:Eight for Dinner
00:22:13.082 : en:Mariachi Nightmare
00:25:29.278 : en:Goodbye Buddy
00:26:50.142 : en:Cletus Problem
00:31:55.697 : en:Busting Out
00:36:31.306 : en:He s Back
00:42:05.723 : en:Dumb And Dumber
00:49:26.380 : en:Papa s Brand New Bag
00:50:57.638 : en:Dinner Disaster
00:54:06.193 : en:Sayonara Sucker
01:00:28.292 : en:Use Your Force
01:03:08.618 : en:La Vida Loca Special
01:10:54.868 : en:The Big Presentation
01:23:23.832 : en:Getting It Together
01:27:37.619 : en:Buddy s Breakdown
01:33:01.826 : en:Klump s Comeback
01:39:08.443 : en:End Titles


_________________
Проголосуй за трекер Открытый торрент трекер - RUS-MEDIA.ORG

Проголосуй Открытый торрент трекер - RUS-MEDIA.ORG



реклама партнёра


Вернуться к началу
 Профиль Отправить личное сообщение  
 
   Похожие торренты   Автор   Торрент   Размер 
В этой теме нет новых непрочитанных сообщений. Чокнутый профессор / The Nutty Professor [Комедия, фантастика, мелодрама, 1996] BDRemux 1080p, Mvo+Dvo+Sub

salma3

5 | 8

25.65 ГБ

В этой теме нет новых непрочитанных сообщений. Чокнутый профессор / The Nutty Professor [фантастика, мелодрама, комедия, 1996] BDRip, Mvo [Россия]

salma3

20 | 6

1.45 ГБ

В этой теме нет новых непрочитанных сообщений. Отмороженный профессор / The Absent Minded Professor [фантастика, комедия, семейный, 1961] DVDRip-AVC, Mvo

salma3

4 | 0

1.45 ГБ

В этой теме нет новых непрочитанных сообщений. Уравнитель 2000 / Equalizer 2000 [фантастика, боевик, приключения, 1987] BDRip 1080p, Avo

salma3

136 | 46

7.79 ГБ

В этой теме нет новых непрочитанных сообщений. Полицейский 2000 года / TC 2000 [Боевик, боевые искусства, фантастика, 1993] BDRip 1080p, Dvo

salma3

22 | 8

7 ГБ

В этой теме нет новых непрочитанных сообщений. Фанатик / High Fidelity [драма, мелодрама, комедия, музыка, 2000] BDRip 1080p, Mvo+2Dvo+Sub

salma3

20 | 1

14.9 ГБ

В этой теме нет новых непрочитанных сообщений. Смертельные гонки 2000 года / Death Race 2000 [фантастика, боевик, комедия, спорт, 1975] BDRip-AVC, Avo

salma3

28 | 11

2.1 ГБ


Начать новую тему Ответить на тему  [ 1 сообщение ] 




Для Мосгорсуда, Роскомнадзора и рекламодателей:: mosgorsud-torrent[собачка]yandex.ru