Торрент файл
скачать торрент магнет ссылка Добавлен: 20 янв 2017, 12:31
Размер: 27.41 ГБ
Сидеров: 33
Личеров: 7
Статус: (salma3)
Автор

СообщениеДобавлено: 20 янв 2017, 12:31 

Не в сети
Супермодератор
Аватара пользователя
Дата регистрации:
15 фев 2012, 16:44
Возраст: 28
Спасибо: 6468 / 2129
Сообщения: 40780
Год выхода: 2008
Жанр: фэнтези, драма, биография, история
Режиссер: Юрай Якубиско

В ролях: Анна Фрил, Карел Роден, Винсент Риган, Хэнс Мэтисон, Деана Хорватова, Франко Неро, Энтони Бирн, Болек Поливка, Иржи Мадл, Моника Хилмерова

О фильме:
Исключительная личность Елизавета Батори интересует историков уже столетия. И даже сегодня, без малого 400 лет со дня смерти графини, взгляды на ее жизнь расходятся. В книге рекордов Гиннеса она значится как самая «большая» и кровавая убийца. Фильм о ее жизни и переплетениях самых влиятельных венгерских родов того времени.



Страна: Словакия, Венгрия, Чехия, Великобритания, Франция
Продолжительность: 02:20:37
Перевод: Многоголосый [закадровый] |CP Digital|

Файл
Кодек: AVC
Качество: BDRemux 1080p
Видео: 1920x1080, 26998 Kbps, 23.976 fps
Звук:
Аудио №1: Russian; AC3; 448 Kbps; 48.0 KHz; 6 ch
Аудио №2: English; AC3; 448 Kbps; 48.0 KHz; 6 ch
Субтитры: Russian
General Complete name : D:BDRemuxBathory.BDRemux.1080p.AVC.Rus.Eng.AC3.2008.mkv
Format : Matroska
File size : 27.4 GiB
Duration : 2h 20mn
Overall bit rate : 27.9 Mbps
Encoded date : UTC 2009-12-07 18:42:27
Writing application : mkvmerge v2.9.9 ('Tutu') built on Nov 25 2009 21:13:32
Writing library : libebml v0.7.9 + libmatroska v0.8.1
Video
ID : 1
Format : AVC
Format/Info : Advanced Video Codec
Format profile : High@L4.1
Format settings, CABAC : Yes
Format settings, ReFrames : 4 frames
Muxing mode : Container profile=Unknown@0.0
Codec ID : V_MPEG4/ISO/AVC
Duration : 2h 20mn
Bit rate : 26.4 Mbps
Width : 1 920 pixels
Height : 1 080 pixels
Display aspect ratio : 16:9
Frame rate : 23.976 fps
Standard : NTSC
Resolution : 24 bits
Colorimetry : 4:2:0
Scan type : Progressive
Bits/(Pixel*Frame) : 0.532
Stream size : 26.0 GiB (95%)
Title : AVC
Language : English
Color primaries : BT.709-5, BT.1361, IEC 61966-2-4, SMPTE RP177
Transfer characteristics : BT.709-5, BT.1361
Matrix coefficients : BT.709-5, BT.1361, IEC 61966-2-4 709, SMPTE RP177
Audio #1
ID : 2
Format : AC-3
Format/Info : Audio Coding 3
Codec ID : A_AC3
Duration : 2h 20mn
Bit rate mode : Constant
Bit rate : 448 Kbps
Channel(s) : 6 channels
Channel positions : Front: L C R, Surround: L R, LFE
Sampling rate : 48.0 KHz
Stream size : 451 MiB (2%)
Title : AC3; 448 Kbps; 6 ch - (MVO) Studiya Veles, Spb
Language : Russian
Audio #2
ID : 3
Format : AC-3
Format/Info : Audio Coding 3
Codec ID : A_AC3
Duration : 2h 20mn
Bit rate mode : Constant
Bit rate : 448 Kbps
Channel(s) : 6 channels
Channel positions : Front: L C R, Surround: L R, LFE
Sampling rate : 48.0 KHz
Stream size : 451 MiB (2%)
Title : AC3; 448 Kbps; 6 ch
Language : English
Text
ID : 4
Format : VobSub
Codec ID : S_VOBSUB
Codec ID/Info : The same subtitle format used on DVDs
Language : Russian
Menu
00:00:00.000 : en:00:00:00.000
00:02:10.130 : en:00:02:10.130
00:06:52.912 : en:00:06:52.912
00:25:31.196 : en:00:25:31.196
00:31:49.241 : en:00:31:49.241
00:36:30.647 : en:00:36:30.647
00:43:21.891 : en:00:43:21.891
00:47:55.081 : en:00:47:55.081
00:52:21.764 : en:00:52:21.764
00:58:19.371 : en:00:58:19.371
01:07:07.232 : en:01:07:07.232
01:18:28.412 : en:01:18:28.412
01:24:58.969 : en:01:24:58.969
01:28:06.281 : en:01:28:06.281
01:37:18.166 : en:01:37:18.166
01:44:56.123 : en:01:44:56.123
01:50:46.974 : en:01:50:46.974
01:53:35.809 : en:01:53:35.809
01:57:19.866 : en:01:57:19.866
02:04:48.481 : en:02:04:48.481
02:07:58.212 : en:02:07:58.212
02:16:27.596 : en:02:16:27.596


_________________
Проголосуй за трекер Открытый торрент трекер - RUS-MEDIA.ORG

Проголосуй Открытый торрент трекер - RUS-MEDIA.ORG



реклама партнёра


Вернуться к началу
 Профиль Отправить личное сообщение  
 
   Похожие торренты   Автор   Торрент   Размер 
В этой теме нет новых непрочитанных сообщений. Голод / Hunger [драма, биография, история, 2008] BDRemux 1080p, Avo

salma3

7 | 3

27.74 ГБ

В этой теме нет новых непрочитанных сообщений. В центре внимания / Spotlight [триллер, драма, биография, история, 2015] BDRemux 1080p, MVO

salma3

26 | 7

33.2 ГБ

В этой теме нет новых непрочитанных сообщений. Кровавая леди Батори / Lady of Csejte (Андрей Конст) [Триллер, 2015] TS

Dracon

4 | 3

1.46 ГБ

В этой теме нет новых непрочитанных сообщений. Прощай, Бафана / Goodbye Bafana [Драма, биография, история, экранизация, 2007] BDRemux 1080p, Mvo+Sub

salma3

15 | 35

21.52 ГБ

В этой теме нет новых непрочитанных сообщений. Отель «Руанда» / Hotel Rwanda [драма, военный, биография, история, 2004] BDRemux 1080p, Mvo+Sub

salma3

24 | 5

33.1 ГБ

В этой теме нет новых непрочитанных сообщений. Кровавая леди Батори / Lady of Csejte (Андрей Конст) [Триллер, 2015] WEBRip

Dracon

45 | 3

1.46 ГБ

В этой теме нет новых непрочитанных сообщений. Кровавая леди Батори / Lady of Csejte (Андрей Конст) [Триллер, 2015] WEBRip [720p]

Dracon

39 | 4

3.33 ГБ


Начать новую тему Ответить на тему  [ 1 сообщение ] 




Для Мосгорсуда, Роскомнадзора и рекламодателей:: mosgorsud-torrent[собачка]yandex.ru