Торрент файл
скачать торрент магнет ссылка Добавлен: 14 янв 2017, 23:14
Размер: 7.49 ГБ
Сидеров: 41
Личеров: 40
Статус: (salma3)
Автор

СообщениеДобавлено: 14 янв 2017, 23:14 

Не в сети
Супермодератор
Аватара пользователя
Дата регистрации:
15 фев 2012, 16:44
Возраст: 28
Спасибо: 7163 / 2147
Сообщения: 61793
Год выхода: 1990
Жанр: боевик, драма, криминал, детектив
Режиссер: Деран Сарафян

В ролях: Жан-Клод Ван Дамм, Роберт Гийом, Синтия Гибб, Джордж Дикерсон, Арт ЛаФлёр, Патрик Килпатрик, Джошуа Джон Миллер, Хэнк Стоун, Конрад Данн, Джек Бэннон, Абдул Салаам Эль Раззас, Армин Шимерман, Джон Лэнц, Ганс Хоус, Гарри Уотерс мл., Дороти Деллс, Пауло Тока, Карлис Бурк, Камель Крифа, Аль Леонг, Дэвид Эрскин, Гэри Сервантес, С.Э. Граймс, Ник Гамбэлла, Роберт Уинли, Дэнни Уизелис, Рик Аллен, Джордж Мэк, Джеймс Харди, Джон Де Белло, Джерри Блэк, Марк ДиСалле, Ричард Л. Дюран, Томас Розалес мл., Ларри Хэнкин, Ли Пэйн, Джек Рубио

О фильме:
Офицер Луис Берк, «нечистый на руку» полицейский детектив, отправляется под видом осужденного в тюрьму «Харрисон», чтобы раскрыть серию убийств заключенных. В стенах тюрьмы он сталкивается с жестокостью сокамерников, с коррумпированными охранниками, со смертью и предательством всех мастей.
Когда Берк узнает шокирующую тайну тюрьмы, он должен совершить дерзкий побег — его последний шанс вырваться из лап сотен осужденных головорезов, возглавляемых его кровным врагом — «Заговорённым».



Страна: Канада, США
Студия: Pathé Pictures International, Cannon Films
Продолжительность: 01:29:03
Перевод: Дубляж, Профессиональный [многоголосый], авторский

Файл
Кодек: h.264
Качество: BDRip 1080p
Видео: MPEG-4 AVC, 1920x1040, 10100 Кбит/с, 23.976 кадр/с
Звук:
Аудио #1: Русский ( AC3, 2ch, 192 Кбит/с, 48.0 KHz) Дублированный [Хлопушка]
Аудио #2: Русский ( AC3, 2ch, 640 Кбит/с, 48.0 KHz) Авторский одноголосый [Андрей Гаврилов]
Аудио #3: Русский ( AC3, 2ch, 224 Кбит/с, 48.0 KHz) Профессиональный многоголосый [НТВ]
Аудио #4: Украинский ( AC3, 2ch, 224 Кбит/с, 48.0 KHz) Профессиональный многоголосый [1+1]
Аудио #5: Английский ( AC3, 2ch, 640 Кбит/с, 48.0 KHz)
Субтитры: Русские, английские

General
Unique ID : 227398861263073351175031752579220802462 (0xAB136D78ACE9F89C89ACE5D3A0E48B9E)
Complete name : Death.Warrant.1990.x264.BDRip.1080p.mkv
Format : Matroska
Format version : Version 4 / Version 2
File size : 7.49 GiB
Duration : 1h 29mn
Overall bit rate : 12.0 Mbps
Encoded date : UTC 2017-01-14 16:12:45
Writing application : mkvmerge v7.8.0 ('River Man') 64bit built on Mar 27 2015 16:31:37
Writing library : libebml v1.3.1 + libmatroska v1.4.2
Cover : Yes
Attachments : cover.jpg

Video
ID : 1
Format : AVC
Format/Info : Advanced Video Codec
Format profile : High@L4.1
Format settings, CABAC : Yes
Format settings, ReFrames : 4 frames
Codec ID : V_MPEG4/ISO/AVC
Duration : 1h 29mn
Bit rate : 10.1 Mbps
Width : 1 920 pixels
Height : 1 040 pixels
Display aspect ratio : 1.85:1
Frame rate mode : Constant
Frame rate : 23.976 (24000/1001) fps
Color space : YUV
Chroma subsampling : 4:2:0
Bit depth : 8 bits
Scan type : Progressive
Bits/(Pixel*Frame) : 0.211
Stream size : 6.28 GiB (84%)
Title : Video
Writing library : x264 core 146 r2538 121396c
Encoding settings : cabac=1 / ref=4 / deblock=1:-3:-3 / analyse=0x3:0x113 / me=umh / subme=11 / psy=1 / psy_rd=1.00:0.00 / mixed_ref=1 / me_range=32 / chroma_me=1 / trellis=2 / 8x8dct=1 / cqm=0 / deadzone=21,11 / fast_pskip=1 / chroma_qp_offset=-2 / threads=6 / lookahead_threads=1 / sliced_threads=0 / nr=0 / decimate=1 / interlaced=0 / bluray_compat=0 / constrained_intra=0 / bframes=12 / b_pyramid=2 / b_adapt=2 / b_bias=0 / direct=3 / weightb=1 / open_gop=0 / weightp=2 / keyint=250 / keyint_min=23 / scenecut=40 / intra_refresh=0 / rc_lookahead=50 / rc=2pass / mbtree=1 / bitrate=10100 / ratetol=1.0 / qcomp=0.60 / qpmin=0 / qpmax=69 / qpstep=4 / cplxblur=20.0 / qblur=0.5 / ip_ratio=1.40 / aq=1:1.00
Language : English
Default : Yes
Forced : No

Audio #1
ID : 2
Format : AC-3
Format/Info : Audio Coding 3
Mode extension : CM (complete main)
Format settings, Endianness : Big
Codec ID : A_AC3
Duration : 1h 29mn
Bit rate mode : Constant
Bit rate : 192 Kbps
Channel(s) : 2 channels
Channel positions : Front: L R
Sampling rate : 48.0 KHz
Frame rate : 31.250 fps (1536 spf)
Compression mode : Lossy
Stream size : 122 MiB (2%)
Title : Дублированный [Хлопушка]
Language : Russian
Default : Yes
Forced : No

Audio #2
ID : 3
Format : AC-3
Format/Info : Audio Coding 3
Mode extension : CM (complete main)
Format settings, Endianness : Big
Codec ID : A_AC3
Duration : 1h 29mn
Bit rate mode : Constant
Bit rate : 640 Kbps
Channel(s) : 2 channels
Channel positions : Front: L R
Sampling rate : 48.0 KHz
Frame rate : 31.250 fps (1536 spf)
Compression mode : Lossy
Stream size : 408 MiB (5%)
Title : Авторский одноголосый [Андрей Гаврилов]
Language : Russian
Default : No
Forced : No

Audio #3
ID : 4
Format : AC-3
Format/Info : Audio Coding 3
Format profile : Dolby Digital
Mode extension : CM (complete main)
Format settings, Endianness : Big
Codec ID : A_AC3
Duration : 1h 29mn
Bit rate mode : Constant
Bit rate : 224 Kbps
Channel(s) : 2 channels
Channel positions : Front: L R
Sampling rate : 48.0 KHz
Frame rate : 31.250 fps (1536 spf)
Compression mode : Lossy
Delay relative to video : 194ms
Stream size : 143 MiB (2%)
Title : Профессиональный многоголосый [НТВ]
Language : Russian
Default : No
Forced : No

Audio #4
ID : 5
Format : AC-3
Format/Info : Audio Coding 3
Mode extension : CM (complete main)
Format settings, Endianness : Big
Codec ID : A_AC3
Duration : 1h 29mn
Bit rate mode : Constant
Bit rate : 224 Kbps
Channel(s) : 2 channels
Channel positions : Front: L R
Sampling rate : 48.0 KHz
Frame rate : 31.250 fps (1536 spf)
Compression mode : Lossy
Delay relative to video : 194ms
Stream size : 143 MiB (2%)
Title : Профессиональный многоголосый [1+1]
Language : Ukrainian
Default : No
Forced : No

Audio #5
ID : 6
Format : AC-3
Format/Info : Audio Coding 3
Mode extension : CM (complete main)
Format settings, Endianness : Big
Codec ID : A_AC3
Duration : 1h 29mn
Bit rate mode : Constant
Bit rate : 640 Kbps
Channel(s) : 2 channels
Channel positions : Front: L R
Sampling rate : 48.0 KHz
Frame rate : 31.250 fps (1536 spf)
Compression mode : Lossy
Stream size : 408 MiB (5%)
Language : English
Default : No
Forced : No

Text #1
ID : 7
Format : PGS
Muxing mode : zlib
Codec ID : S_HDMV/PGS
Codec ID/Info : Picture based subtitle format used on BDs/HD-DVDs
Duration : 1h 26mn
Bit rate : 10.0 Kbps
Count of elements : 1700
Stream size : 6.24 MiB (0%)
Language : English
Default : Yes
Forced : No

Text #2
ID : 8
Format : PGS
Muxing mode : zlib
Codec ID : S_HDMV/PGS
Codec ID/Info : Picture based subtitle format used on BDs/HD-DVDs
Duration : 1h 25mn
Bit rate : 11.6 Kbps
Count of elements : 1414
Stream size : 7.04 MiB (0%)
Language : Russian
Default : No
Forced : No

Text #3
ID : 9
Format : PGS
Muxing mode : zlib
Codec ID : S_HDMV/PGS
Codec ID/Info : Picture based subtitle format used on BDs/HD-DVDs
Duration : 1s 1ms
Bit rate : 4 515 bps
Count of elements : 2
Stream size : 565 Bytes (0%)
Language : Russian
Default : No
Forced : No

Menu
00:00:00.000 : en:Chapter 1
00:05:19.986 : en:Chapter 2
00:09:28.401 : en:Chapter 3
00:15:58.499 : en:Chapter 4
00:22:16.835 : en:Chapter 5
00:25:21.269 : en:Chapter 6
00:33:30.008 : en:Chapter 7
00:36:32.231 : en:Chapter 8
00:42:44.478 : en:Chapter 9
00:46:57.397 : en:Chapter 10
00:51:52.067 : en:Chapter 11
00:55:57.854 : en:Chapter 12
01:02:11.185 : en:Chapter 13
01:08:19.929 : en:Chapter 14
01:14:06.817 : en:Chapter 15
01:24:30.982 : en:Chapter 16


_________________
Проголосуй за трекер Открытый торрент трекер - RUS-MEDIA.ORG

Проголосуй Открытый торрент трекер - RUS-MEDIA.ORG


Вернуться к началу
 Профиль Отправить личное сообщение  
 
   Похожие торренты   Автор   Торрент   Размер 
В этой теме нет новых непрочитанных сообщений. Ордер на смерть / Death Warrant [боевик, драма, криминал, детектив, 1990] BDRip-AVC, Mvo+Sub

salma3

69 | 9

1.46 ГБ

В этой теме нет новых непрочитанных сообщений. Ордер на смерть / Death warrant [боевик, драма, криминал, 1990] BDRip, Avo

salma3

17 | 13

1.39 ГБ

В этой теме нет новых непрочитанных сообщений. Ордер на смерть / Death Warrant [боевик, триллер, криминал, 1990] HDRip-AVC, Mvo [НТВ+]

salma3

66 | 13

746.21 МБ

В этой теме нет новых непрочитанных сообщений. Смерть на Ниле / Death on the Nile [драма, криминал, детектив, 1978] BDRip 1080p, Dub

salma3

7 | 6

15.16 ГБ

В этой теме нет новых непрочитанных сообщений. Смерть на Ниле / Death on the Nile [драма, криминал, детектив, 1978] BDRip-AVC, Dub

salma3

20 | 2

3.55 ГБ

В этой теме нет новых непрочитанных сообщений. Внезапная смерть / Sudden Death [Боевик, триллер, драма, 1995] BDRip 1080p, Mvo

salma3

33 | 65

15.68 ГБ

В этой теме нет новых непрочитанных сообщений. Подстава / Жизнь и смерть Бобби Зи / The Death and Life of Bobby Z [боевик, триллер, драма, криминал, 2007] BDRemux 1080p, Mvo

salma3

17 | 9

19.34 ГБ


Начать новую тему Ответить на тему  [ 1 сообщение ] 




Для Мосгорсуда, Роскомнадзора и рекламодателей:: mosgorsud-torrent[собачка]yandex.ru
cron