Торрент файл
скачать торрент магнет ссылка Добавлен: 14 янв 2017, 15:18
Размер: 8.06 ГБ
Сидеров: 16
Личеров: 43
Статус: (salma3)
Автор

СообщениеДобавлено: 14 янв 2017, 15:18 

В сети
Супермодератор
Аватара пользователя
Дата регистрации:
15 фев 2012, 16:44
Возраст: 28
Спасибо: 6644 / 2146
Сообщения: 45932
Год выхода: 1998
Жанр: драма, комедия, приключения, семейный
Режиссер: Джон Робертс / John Roberts

В ролях: Джина Роулендс, Тони Шэлуб, Чич Марин, Брюс Дэвисон, Трини Альварадо, Джей Мор, Бадди Хэкетт, Халли Кейт Айзенберг, Мэтт Крэйвен, Билл Коббс

О фильме: Самый забавный и говорливый попугай в мире из-за своих необычных талантов очень быстро попадает в неприятности...Способность говорить приносит попугаю одни неприятности, но в сердце живет надежда, ведь на своем пути Поли встречает друзей, которые помогают ему осуществить самую заветную мечту — вернуться наконец домой!



Страна: США
Продолжительность: 01:31:24
Перевод #1: Профессиональный дублированный
Перевод #2: Профессиональный (многоголосый, закадровый)
Перевод #3: Профессиональный (многоголосый, закадровый)
Cубтитры : Английский

Контейнер: MKV
Качество: WEBRip 1080p
Видео: MPEG-4 AVC, High@L4, 10.6 Mb/s, 1 920 x 1 080, 23.976 fps
Аудио 1 : Русский (AC-3, 6ch, 448 kb/s, 48.0 KHz) Dub
Аудио 2 : Русский (AC-3, 6ch, 448 kb/s, 48.0 KHz) MVO
Аудио 3 : Русский (AC-3, 6ch, 448 kb/s, 48.0 KHz) MVO
Аудио 4 : Английский (E-AC-3, 6ch, 640 kb/s, 48.0 KHz)
Субтитры : English SRT

Навигация по главам: есть (En)
Глобальные тэги: есть

Общее
Уникальный идентификатор : 212748174839859168258769376463878284071 (0xA00DCEDC9CD5565699CCE3612ACAE327)
Полное имя : E:Поли Paulie (1998).mkv
Формат : Matroska
Версия формата : Version 4 / Version 2
Размер файла : 8,06 Гбайт
Продолжительность : 1 ч. 31 м.
Режим общего битрейта : Переменный
Общий поток : 12,6 Мбит/сек
Название фильма : По / Поли
Тип содержимого : Movie
Дата выпуска : 1998-04-17
Дата кодирования : UTC 2017-01-13 18:49:41
Программа кодирования : mkvmerge v9.7.1 ('Pandemonium') 64bit
Библиотека кодирования : libebml v1.3.4 + libmatroska v1.4.5
Обложка : Yes
Attachments : cover.jpg
ACTOR : Джина Роулендс, Тони Шэлуб, Чич Марин, Брюс Дэвисон, Трини Альварадо, Джей Мор, Бадди Хэкетт, Халли Кейт Айзенберг, Мэтт Крэвен, Билл Коббс
ARTIST : Джина Роулендс, Тони Шэлуб, Чич Марин, Брюс Дэвисон, Трини Альварадо, Джей Мор, Бадди Хэкетт, Халли Кейт Айзенберг, Мэтт Крэвен, Билл Коббс
DIRECTOR : Джон Робертс
GENRE : комедия, семейный
LAW_RATING : PG
PRODUCER : Марк Гордон, Гари Левинсон, Эллисон Лион Сеган
PRODUCTION_STUDIO : Mutual Film Company
SCREENPLAY_BY : Лори Крэйг
SYNOPSIS : Самый забавный и говорливый попугай в мире из-за своих необычных талантов очень быстро попадает в неприятности. Свои способности лучше скрывать — делает вывод попугай Поли в этой забавной приключенческой картине, которая безусловно понравится всем членам семьи. Маленькая, но очень умная птичка пытается разыскать девочку, которая ее вырастила. Способность говорить приносит попугаю одни неприятности, но в сердце живет надежда, ведь на своем пути Поли встречает друзей, которые помогают ему осуществить самую заветную мечту — вернуться наконец домой!

Видео
Идентификатор : 1
Формат : AVC
Формат/Информация : Advanced Video Codec
Профиль формата : High@L4
Параметр CABAC формата : Да
Параметр ReFrames формата : 4 кадра
Идентификатор кодека : V_MPEG4/ISO/AVC
Продолжительность : 1 ч. 31 м.
Вид битрейта : Переменный
Битрейт : 10,6 Мбит/сек
Максимальный битрейт : 15,0 Мбит/сек
Ширина : 1920 пикселей
Высота : 1080 пикселей
Соотношение сторон : 16:9
Режим частоты кадров : Постоянный
Частота кадров : 23,976 (24000/1001) кадра/сек
Цветовое пространство : YUV
Субдискретизация насыщенности : 4:2:0
Битовая глубина : 8 бит
Тип развёртки : Прогрессивная
Бит/(Пиксели*Кадры) : 0.214
Размер потока : 6,79 Гбайт (84%)
Библиотека кодирования : x264 core 148 r2623 d5b2374
Настройки программы : cabac=1 / ref=4 / deblock=1:-1:-1 / analyse=0x3:0x133 / me=umh / subme=9 / psy=1 / psy_rd=1.00:0.15 / mixed_ref=1 / me_range=24 / chroma_me=1 / trellis=2 / 8x8dct=1 / cqm=0 / deadzone=21,11 / fast_pskip=1 / chroma_qp_offset=-3 / threads=34 / lookahead_threads=5 / sliced_threads=0 / nr=150 / decimate=1 / interlaced=0 / bluray_compat=0 / constrained_intra=0 / bframes=8 / b_pyramid=2 / b_adapt=2 / b_bias=0 / direct=3 / weightb=1 / open_gop=0 / weightp=2 / keyint=120 / keyint_min=61 / scenecut=0 / intra_refresh=0 / rc_lookahead=120 / rc=crf / mbtree=1 / crf=18.0 / qcomp=0.60 / qpmin=0 / qpmax=69 / qpstep=4 / vbv_maxrate=15000 / vbv_bufsize=31250 / crf_max=0.0 / nal_hrd=vbr / filler=0 / ip_ratio=1.40 / aq=3:1.00
Default : Да
Forced : Нет
Цветовой диапазон : Limited
Основные цвета : BT.709
Характеристики трансфера : BT.709
Коэффициенты матрицы : BT.709

Аудио #1
Идентификатор : 2
Формат : AC-3
Формат/Информация : Audio Coding 3
Расширение режима : CM (complete main)
Параметр Endianness формата : Big
Идентификатор кодека : A_AC3
Продолжительность : 1 ч. 31 м.
Вид битрейта : Постоянный
Битрейт : 448 Кбит/сек
Каналы : 6 каналов
Расположение каналов : Front: L C R, Side: L R, LFE
Частота : 48,0 КГц
Частота кадров : 31,250 кадров/сек (1536 spf)
Битовая глубина : 16 бит
Метод сжатия : С потерями
Размер потока : 293 Мбайт (4%)
Заголовок : Dub
Язык : Russian
Default : Да
Forced : Нет

Аудио #2
Идентификатор : 3
Формат : AC-3
Формат/Информация : Audio Coding 3
Расширение режима : CM (complete main)
Параметр Endianness формата : Big
Идентификатор кодека : A_AC3
Продолжительность : 1 ч. 31 м.
Вид битрейта : Постоянный
Битрейт : 448 Кбит/сек
Каналы : 6 каналов
Расположение каналов : Front: L C R, Side: L R, LFE
Частота : 48,0 КГц
Частота кадров : 31,250 кадров/сек (1536 spf)
Битовая глубина : 16 бит
Метод сжатия : С потерями
Размер потока : 293 Мбайт (4%)
Заголовок : MVO 2001
Язык : Russian
Default : Нет
Forced : Нет

Аудио #3
Идентификатор : 4
Формат : AC-3
Формат/Информация : Audio Coding 3
Расширение режима : CM (complete main)
Параметр Endianness формата : Big
Идентификатор кодека : A_AC3
Продолжительность : 1 ч. 31 м.
Вид битрейта : Постоянный
Битрейт : 448 Кбит/сек
Каналы : 6 каналов
Расположение каналов : Front: L C R, Side: L R, LFE
Частота : 48,0 КГц
Частота кадров : 31,250 кадров/сек (1536 spf)
Битовая глубина : 16 бит
Метод сжатия : С потерями
Размер потока : 293 Мбайт (4%)
Заголовок : MVO 2003
Язык : Russian
Default : Нет
Forced : Нет

Аудио #4
Идентификатор : 5
Формат : E-AC-3
Формат/Информация : Enhanced Audio Coding 3
Параметр Endianness формата : Big
Идентификатор кодека : A_EAC3
Продолжительность : 1 ч. 31 м.
Вид битрейта : Постоянный
Битрейт : 640 Кбит/сек
Каналы : 6 каналов
Расположение каналов : Front: L C R, Side: L R, LFE
Частота : 48,0 КГц
Частота кадров : 187,500 кадров/сек (256 spf)
Метод сжатия : С потерями
Размер потока : 418 Мбайт (5%)
Язык : English
Default : Нет
Forced : Нет

Текст
Идентификатор : 6
Формат : UTF-8
Идентификатор кодека : S_TEXT/UTF8
Идентификатор кодека/Информация : UTF-8 Plain Text
Продолжительность : 1 ч. 24 м.
Битрейт : 63 бит/сек
Count of elements : 1193
Размер потока : 39,5 Кбайт (0%)
Default : Да
Forced : Нет

Меню
00:00:00.000 : en:The Parrot and the Mop Monkey
00:13:19.882 : en:It All Started with Marie
00:16:59.393 : en:Make Me Talk Right...
00:21:21.322 : en:Some New Words
00:24:18.582 : en:Fly Back to Me
00:28:07.644 : en:The Bird with the Dirty Mouth
00:33:08.528 : en:So Long, Jersey
00:36:59.759 : en:The Things They Take Away
00:40:46.110 : en:First Flight
00:45:10.583 : en:Ignacio
00:51:12.778 : en:The Past Comes Back to Bite You
00:58:08.402 : en:Chump Change
01:05:13.076 : en:The Property of the Institute
01:12:32.515 : en:We'll Find Your Marie
01:20:04.467 : en:Marie
01:25:16.278 : en:End Titles


_________________
Проголосуй за трекер Открытый торрент трекер - RUS-MEDIA.ORG

Проголосуй Открытый торрент трекер - RUS-MEDIA.ORG



реклама партнёра


Вернуться к началу
 Профиль Отправить личное сообщение  
 
   Похожие торренты   Автор   Торрент   Размер 
В этой теме нет новых непрочитанных сообщений. Муравей Антц / Antz [Мультфильм, комедия, приключения, семейный, 1998] WEBRip 1080p, Dub

salma3

0 | 0

6.45 ГБ

В этой теме нет новых непрочитанных сообщений. Муравей Антц / Antz [Мультфильм, комедия, приключения, семейный, 1998] WEBRip-AVC, Dub

salma3

0 | 0

1.62 ГБ

В этой теме нет новых непрочитанных сообщений. Муравей Антц / Antz [Мультфильм, комедия, приключения, семейный, 1998] WEBRip, Dub

salma3

0 | 0

1.45 ГБ

В этой теме нет новых непрочитанных сообщений. Принц Египта / The Prince of Egypt [мультфильм, приключения, семейный, история, 1998] WEBRip 1080p, 2Dub+Mvo+2Dvo+2Avo

salma3

57 | 6

7.4 ГБ

В этой теме нет новых непрочитанных сообщений. Младенец на прогулке / или Ползком от гангстеров / Baby's Day Out [драма, комедия, криминал, приключения, семейный, 1994] WEBRip 1080p, Mvo

salma3

100 | 62

8.23 ГБ

В этой теме нет новых непрочитанных сообщений. Моя мама русалка / Fishtales [Семейный, комедия, приключения, 2007] WEBRip 1080p, Mvo+Sub

salma3

197 | 96

3.42 ГБ

В этой теме нет новых непрочитанных сообщений. Подводная братва / Shark Tale [мультфильм, комедия, приключения, семейный, 2004] WEBRip 1080p, Dub+Mvo+Dvo+Avo+Sub

salma3

47 | 13

7.05 ГБ


Начать новую тему Ответить на тему  [ 1 сообщение ] 




Для Мосгорсуда, Роскомнадзора и рекламодателей:: mosgorsud-torrent[собачка]yandex.ru