Торрент файл
скачать торрент магнет ссылка Добавлен: 14 янв 2017, 13:34
Размер: 8.48 ГБ
Сидеров: 94
Личеров: 75
Статус: (salma3)
Автор

СообщениеДобавлено: 14 янв 2017, 13:34 

Не в сети
Супермодератор
Аватара пользователя
Дата регистрации:
15 фев 2012, 16:44
Возраст: 28
Спасибо: 7224 / 2147
Сообщения: 68058
Год выхода: 1986
Страна: США
Студия: De Laurentiis Entertainment Group (DEG)
Продолжительность: 01:37:12
Жанр: ужасы, комедия, музыка
Режиссер: Чарльз Мартин Смит

В ролях: Марк Прайс, Тони Филдс, Лиза Орголини, Даг Сэвант, Илэйн Джойс, Глен Морган, Джин Симмонс, Оззи Осборн, Элиз Ричардс, Ричард Пачорек, ...

Перевод: Профессиональный (двухголосый, закадровый) CP-Digital

О фильме: Когда знаменитый хард-рок музыкант Сэмми Карр погибает при таинственных обстоятельствах, глава местных «металлистов» Эдди чувствует, что и его жизнь кончена вместе с жизнью кумира. Но, прослушивая раз за разом последнюю запись Карра, Эдди обнаруживает, что может общаться с духом умершего музыканта. Тот дает Эдди весьма ценные советы, однако, постепенно его наставления приобретают все более жестокий оттенок. Эдди понимает, что стал пешкой в зловещей игре мертвых…



Кодек: x264
Качество: BDRip 1080p
Видео: 1920x1080, 12100 kbps, 23,976 fps
Аудио #1: AC-3, 2 ch, 192 kbps (Rus) - DVO CP-Digital
Аудио #2: AC-3, 2 ch, 192 kbps (Eng)
Субтитры: Английские

Общее
Уникальный идентификатор : 253996592575605048368476907281567849932 (0xBF15F6DF136EC902ACE871CE47661DCC)
Полное имя : Конфеты или смерть (Trick or Treat) 1986 BDRip 1080p.mkv
Формат : Matroska
Версия формата : Version 2
Размер файла : 8,48 Гбайт
Продолжительность : 1 ч. 37 м.
Общий поток : 12,5 Мбит/сек
Дата кодирования : UTC 2017-01-14 08:27:13
Программа кодирования : mkvmerge v4.0.0 ('The Stars were mine') сборка от Jun 6 2010 16:18:42
Библиотека кодирования : libebml v1.0.0 + libmatroska v1.0.0

Видео
Идентификатор : 1
Формат : AVC
Формат/Информация : Advanced Video Codec
Профиль формата : High@L4.1
Параметр CABAC формата : Да
Параметр ReFrames формата : 4 кадра
Идентификатор кодека : V_MPEG4/ISO/AVC
Продолжительность : 1 ч. 37 м.
Битрейт : 12,1 Мбит/сек
Ширина : 1920 пикселей
Высота : 1080 пикселей
Соотношение сторон : 16:9
Режим частоты кадров : Постоянный
Частота кадров : 23,976 (24000/1001) кадра/сек
Цветовое пространство : YUV
Субдискретизация насыщенности : 4:2:0
Битовая глубина : 8 бит
Тип развёртки : Прогрессивная
Бит/(Пиксели*Кадры) : 0.243
Размер потока : 8,05 Гбайт (95%)
Библиотека кодирования : x264 core 142 r2479 dd79a61
Настройки программы : cabac=1 / ref=4 / deblock=1:-2:-2 / analyse=0x3:0x133 / me=umh / subme=9 / psy=1 / psy_rd=1.00:0.00 / mixed_ref=1 / me_range=16 / chroma_me=1 / trellis=1 / 8x8dct=1 / cqm=0 / deadzone=21,11 / fast_pskip=0 / chroma_qp_offset=-2 / threads=6 / lookahead_threads=1 / sliced_threads=0 / nr=0 / decimate=1 / interlaced=0 / bluray_compat=0 / constrained_intra=0 / bframes=3 / b_pyramid=2 / b_adapt=1 / b_bias=0 / direct=1 / weightb=1 / open_gop=0 / weightp=2 / keyint=250 / keyint_min=23 / scenecut=40 / intra_refresh=0 / rc_lookahead=40 / rc=2pass / mbtree=1 / bitrate=12103 / ratetol=1.0 / qcomp=0.60 / qpmin=0 / qpmax=69 / qpstep=4 / cplxblur=20.0 / qblur=0.5 / ip_ratio=1.40 / aq=1:1.00
Язык : English
Default : Нет
Forced : Нет

Аудио #1
Идентификатор : 2
Формат : AC-3
Формат/Информация : Audio Coding 3
Расширение режима : CM (complete main)
Параметр Endianness формата : Big
Идентификатор кодека : A_AC3
Продолжительность : 1 ч. 37 м.
Вид битрейта : Постоянный
Битрейт : 192 Кбит/сек
Каналы : 2 канала
Расположение каналов : Front: L R
Частота : 48,0 КГц
Частота кадров : 31,250 кадров/сек (1536 spf)
Метод сжатия : С потерями
Размер потока : 133 Мбайт (2%)
Заголовок : DVO CP-Digital
Язык : Russian
Default : Нет
Forced : Нет

Аудио #2
Идентификатор : 3
Формат : AC-3
Формат/Информация : Audio Coding 3
Расширение режима : CM (complete main)
Параметр Endianness формата : Big
Идентификатор кодека : A_AC3
Продолжительность : 1 ч. 37 м.
Вид битрейта : Постоянный
Битрейт : 192 Кбит/сек
Каналы : 2 канала
Расположение каналов : Front: L R
Частота : 48,0 КГц
Частота кадров : 31,250 кадров/сек (1536 spf)
Метод сжатия : С потерями
Размер потока : 133 Мбайт (2%)
Язык : English
Default : Нет
Forced : Нет

Текст
Идентификатор : 4
Формат : UTF-8
Идентификатор кодека : S_TEXT/UTF8
Идентификатор кодека/Информация : UTF-8 Plain Text
Язык : English
Default : Нет
Forced : Нет



_________________
Проголосуй за трекер Открытый торрент трекер - RUS-MEDIA.ORG

Проголосуй Открытый торрент трекер - RUS-MEDIA.ORG


Вернуться к началу
 Профиль Отправить личное сообщение  
 
   Похожие торренты   Автор   Торрент   Размер 
В этой теме нет новых непрочитанных сообщений. Кошелек или жизнь / Trick 'r Treat [ужасы, триллер, комедия, 2007] HDRip-AVC, Dub

salma3

0 | 0

745.77 МБ

В этой теме нет новых непрочитанных сообщений. [StepMomLessons.com / Babes.com] Dana DeArmond, Khloe Kapri - Trick or Treat (28.10.2017) [Threesome, FFM, Cum Swap, Big Tits, All Sex]

salma3

29 | 11

342.72 МБ

В этой теме нет новых непрочитанных сообщений. Телетеррор / TerrorVision [ужасы, фантастика, комедия, семейный, 1986] BDRip 1080p, Dvo

salma3

26 | 21

6.31 ГБ

В этой теме нет новых непрочитанных сообщений. [BadMilfs.com / TeamSkeet.com] Monica Sage & Sofie Marie (Treat Me Like You Treat My Stepdaughter / 18.05.2018) [2018 г., All Sex, 1080p]

salma3

0 | 0

3.63 ГБ

В этой теме нет новых непрочитанных сообщений. [StepSiblingsCaught.com / Nubiles-Porn.com] Alex More, Cadey Mercury - Trick Or Treat (26.10.2017) [Girl-Girl-Boy, Creampie, Small Boobs, Brunette, Short hair, Panties, Hardcore, Petite, Blowjob, Facial, Handjob, Girl Orgasm, POV, Deep Thro

salma3

38 | 13

490.13 МБ

В этой теме нет новых непрочитанных сообщений. Порочные губы / Vicious Lips [ужасы, фантастика, музыка, 1986] HDTVRip, Dvo [НТВ+]

salma3

105 | 21

1.38 ГБ

В этой теме нет новых непрочитанных сообщений. Демоны 2 / Demoni 2: L'incubo ritorna [ужасы, 1986] BDRip 1080p, Mvo

salma3

4 | 5

11.19 ГБ


Начать новую тему Ответить на тему  [ 1 сообщение ] 




Для Мосгорсуда, Роскомнадзора и рекламодателей:: mosgorsud-torrent[собачка]yandex.ru
cron