Торрент файл
скачать торрент магнет ссылка Добавлен: 14 янв 2017, 12:45
Размер: 7.32 ГБ
Сидеров: 122
Личеров: 45
Статус: (salma3)
Автор

СообщениеДобавлено: 14 янв 2017, 12:45 

Не в сети
Супермодератор
Аватара пользователя
Дата регистрации:
15 фев 2012, 16:44
Возраст: 29
Спасибо: 7339 / 2147
Сообщения: 75613
Страна: США, Мексика
Жанр: фантастика, триллер
Год выпуска: 1996
Продолжительность: 01:55:42
Перевод: 2 x Профессиональный (многоголосый, закадровый), 2 x Профессиональный (двухголосый, закадровый), 4 x Авторский
Субтитры: русские, английские.
Режиссер: Дэвид Туи / David Twohy

В ролях: Чарли Шин, Линдсэй Краузе, Ричард Шифф, Шэйн, Рон Силвер, Тери Поло

Описание: Однажды радиоастроном Зэйн Замински услышал сигнал из космоса. Однако за совершенное Зэйном «открытие века» его начальник Джордиан увольняет своего сотрудника, из чего Замински делает вывод, что существует грандиозный заговор с целью скрыть установление контакта с внеземной цивилизацией.



Качество: BDRip
Контейнер: MKV
Видео: AVC, 1280x696 (1.85:1), 5289 kbps, 23,976 fps, 0,248 bpp
Аудио №1: русский / AC3 / 5.1 / 48 kHz / 640 kbps / MVO
Аудио №2: русский / AC3 / 2.0 / 48 kHz / 192 kbps / MVO (ОРТ )
Аудио №3: русский / AC3 / 5.1 / 48 kHz / 448 kbps / DVO ( Twister )
Аудио №4: русский / AC3 / 2.0 / 48 kHz / 192 kbps / DVO ( НТВ )
Аудио №5: русский / AC3 / 2.0 / 48 kHz / 192 kbps / AVO ( Визгунов )
Аудио №6: русский / AC3 / 5.1 / 48 kHz / 640 kbps / AVO ( Живов )
Аудио №7: русский / AC3 / 5.1 / 48 kHz / 448 kbps / AVO ( Гаврилов, поздний )
Аудио №8: русский / AC3 / 2.0 / 48 kHz / 192 kbps / AVO ( Гаврилов, ранний )
Аудио №9: английский / AC3 / 5.1 / 48 kHz / 640 kbps
Навигация по главам: есть

Семпл

**********************************************************************
x264 [info]: frame I:1210 Avg QP:16.31 size:112291
x264 [info]: frame P:35041 Avg QP:17.46 size: 51691
x264 [info]: frame B:129617 Avg QP:19.92 size: 21606
**********************************************************************
Формат : Matroska
Версия формата : Version 2
Размер файла : 7,32 Гбайт
Продолжительность : 1 ч. 55 м.
Общий поток : 9054 Кбит/сек
Название фильма : = Прибытие / The Arrival (1996) BDRip 720p by SC Kosmos =
Дата кодирования : UTC 2017-01-11 09:42:00
Программа кодирования : mkvmerge v5.8.0 ('No Sleep / Pillow') built on Sep 2 2012 15:37:04
Библиотека кодирования : libebml v1.2.3 + libmatroska v1.3.0
Attachment : Yes
Видео
Идентификатор : 1
Формат : AVC
Формат/Информация : Advanced Video Codec
Профиль формата : High@L4.1
Параметр CABAC формата : Да
Параметр ReFrames формата : 9 кадров
Идентификатор кодека : V_MPEG4/ISO/AVC
Продолжительность : 1 ч. 55 м.
Битрейт : 5290 Кбит/сек
Ширина : 1280 пикселей
Высота : 696 пикселей
Соотношение сторон : 1,85:1
Режим частоты кадров : Постоянный
Частота кадров : 23,976 кадра/сек
Цветовое пространство : YUV
Субдискретизация насыщенности : 4:2:0
Битовая глубина : 8 бит
Тип развёртки : Прогрессивная
Бит/(Пиксели*Кадры) : 0.248
Размер потока : 4,28 Гбайт (58%)
Заголовок : Прибытие / The Arrival (1996) BDRip 720p by SC Kosmos
Библиотека кодирования : x264 core 148 r2705 3f5ed56
Настройки программы : cabac=1 / ref=9 / deblock=1:-3:-3 / analyse=0x3:0x113 / me=umh / subme=11 / psy=1 / psy_rd=1.10:0.05 / mixed_ref=1 / me_range=32 / chroma_me=1 / trellis=2 / 8x8dct=1 / cqm=0 / deadzone=21,11 / fast_pskip=0 / chroma_qp_offset=-3 / threads=12 / lookahead_threads=2 / sliced_threads=0 / nr=0 / decimate=1 / interlaced=0 / bluray_compat=0 / constrained_intra=0 / bframes=8 / b_pyramid=2 / b_adapt=2 / b_bias=0 / direct=3 / weightb=1 / open_gop=0 / weightp=2 / keyint=240 / keyint_min=23 / scenecut=40 / intra_refresh=0 / rc_lookahead=40 / rc=crf / mbtree=0 / crf=18.0 / qcomp=0.60 / qpmin=0 / qpmax=69 / qpstep=4 / vbv_maxrate=62500 / vbv_bufsize=78125 / crf_max=0.0 / nal_hrd=none / filler=0 / ip_ratio=1.40 / pb_ratio=1.30 / aq=1:0.75
Язык : English
Default : Да
Forced : Нет
Основные цвета : BT.709
Характеристики трансфера : BT.709
Коэффициенты матрицы : BT.709
Аудио #1
Идентификатор : 2
Формат : AC-3
Формат/Информация : Audio Coding 3
Расширение режима : CM (complete main)
Параметр Endianness формата : Big
Идентификатор кодека : A_AC3
Продолжительность : 1 ч. 55 м.
Вид битрейта : Постоянный
Битрейт : 640 Кбит/сек
Каналы : 6 каналов
Расположение каналов : Front: L C R, Side: L R, LFE
Частота : 48,0 КГц
Битовая глубина : 16 бит
Метод сжатия : С потерями
Размер потока : 530 Мбайт (7%)
Заголовок : MVO
Язык : Russian
Default : Да
Forced : Нет
Аудио #2
Идентификатор : 3
Формат : AC-3
Формат/Информация : Audio Coding 3
Расширение режима : CM (complete main)
Параметр Endianness формата : Big
Идентификатор кодека : A_AC3
Продолжительность : 1 ч. 55 м.
Вид битрейта : Постоянный
Битрейт : 192 Кбит/сек
Каналы : 2 канала
Расположение каналов : Front: L R
Частота : 48,0 КГц
Битовая глубина : 16 бит
Метод сжатия : С потерями
Размер потока : 159 Мбайт (2%)
Заголовок : MVO (ОРТ )
Язык : Russian
Default : Нет
Forced : Нет
Аудио #3
Идентификатор : 4
Формат : AC-3
Формат/Информация : Audio Coding 3
Расширение режима : CM (complete main)
Параметр Endianness формата : Big
Идентификатор кодека : A_AC3
Продолжительность : 1 ч. 55 м.
Вид битрейта : Постоянный
Битрейт : 448 Кбит/сек
Каналы : 6 каналов
Расположение каналов : Front: L C R, Side: L R, LFE
Частота : 48,0 КГц
Битовая глубина : 16 бит
Метод сжатия : С потерями
Размер потока : 371 Мбайт (5%)
Заголовок : DVO ( Twister )
Язык : Russian
Default : Нет
Forced : Нет
Аудио #4
Идентификатор : 5
Формат : AC-3
Формат/Информация : Audio Coding 3
Расширение режима : CM (complete main)
Параметр Endianness формата : Big
Идентификатор кодека : A_AC3
Продолжительность : 1 ч. 55 м.
Вид битрейта : Постоянный
Битрейт : 192 Кбит/сек
Каналы : 2 канала
Расположение каналов : Front: L R
Частота : 48,0 КГц
Битовая глубина : 16 бит
Метод сжатия : С потерями
Размер потока : 159 Мбайт (2%)
Заголовок : DVO ( НТВ )
Язык : Russian
Default : Нет
Forced : Нет
Аудио #5
Идентификатор : 6
Формат : AC-3
Формат/Информация : Audio Coding 3
Расширение режима : CM (complete main)
Параметр Endianness формата : Big
Идентификатор кодека : A_AC3
Продолжительность : 1 ч. 55 м.
Вид битрейта : Постоянный
Битрейт : 192 Кбит/сек
Каналы : 2 канала
Расположение каналов : Front: L R
Частота : 48,0 КГц
Битовая глубина : 16 бит
Метод сжатия : С потерями
Размер потока : 159 Мбайт (2%)
Заголовок : AVO ( Визгунов )
Язык : Russian
Default : Нет
Forced : Нет
Аудио #6
Идентификатор : 7
Формат : AC-3
Формат/Информация : Audio Coding 3
Расширение режима : CM (complete main)
Параметр Endianness формата : Big
Идентификатор кодека : A_AC3
Продолжительность : 1 ч. 55 м.
Вид битрейта : Постоянный
Битрейт : 640 Кбит/сек
Каналы : 6 каналов
Расположение каналов : Front: L C R, Side: L R, LFE
Частота : 48,0 КГц
Битовая глубина : 16 бит
Метод сжатия : С потерями
Размер потока : 530 Мбайт (7%)
Заголовок : AVO ( Живов )
Язык : Russian
Default : Нет
Forced : Нет
Аудио #7
Идентификатор : 8
Формат : AC-3
Формат/Информация : Audio Coding 3
Расширение режима : CM (complete main)
Параметр Endianness формата : Big
Идентификатор кодека : A_AC3
Продолжительность : 1 ч. 55 м.
Вид битрейта : Постоянный
Битрейт : 448 Кбит/сек
Каналы : 6 каналов
Расположение каналов : Front: L C R, Side: L R, LFE
Частота : 48,0 КГц
Битовая глубина : 16 бит
Метод сжатия : С потерями
Размер потока : 371 Мбайт (5%)
Заголовок : AVO ( Гаврилов, поздний )
Язык : Russian
Default : Нет
Forced : Нет
Аудио #8
Идентификатор : 9
Формат : AC-3
Формат/Информация : Audio Coding 3
Расширение режима : CM (complete main)
Параметр Endianness формата : Big
Идентификатор кодека : A_AC3
Продолжительность : 1 ч. 55 м.
Вид битрейта : Постоянный
Битрейт : 192 Кбит/сек
Каналы : 2 канала
Расположение каналов : Front: L R
Частота : 48,0 КГц
Битовая глубина : 16 бит
Метод сжатия : С потерями
Размер потока : 159 Мбайт (2%)
Заголовок : AVO ( Гаврилов, ранний )
Язык : Russian
Default : Нет
Forced : Нет
Аудио #9
Идентификатор : 10
Формат : AC-3
Формат/Информация : Audio Coding 3
Расширение режима : CM (complete main)
Параметр Endianness формата : Big
Идентификатор кодека : A_AC3
Продолжительность : 1 ч. 55 м.
Вид битрейта : Постоянный
Битрейт : 640 Кбит/сек
Каналы : 6 каналов
Расположение каналов : Front: L C R, Side: L R, LFE
Частота : 48,0 КГц
Битовая глубина : 16 бит
Метод сжатия : С потерями
Размер потока : 530 Мбайт (7%)
Язык : English
Default : Нет
Forced : Нет
Текст #1
Идентификатор : 11
Формат : UTF-8
Идентификатор кодека : S_TEXT/UTF8
Идентификатор кодека/Информация : UTF-8 Plain Text
Язык : Russian
Default : Нет
Forced : Нет
Текст #2
Идентификатор : 12
Формат : UTF-8
Идентификатор кодека : S_TEXT/UTF8
Идентификатор кодека/Информация : UTF-8 Plain Text
Язык : English
Default : Нет
Forced : Нет
Меню
00:00:00.000 : en:Chapter 01 / en:Chapter 01
00:02:20.597 : en:Chapter 02 / en:Chapter 02
00:06:36.270 : en:Chapter 03 / en:Chapter 03
00:10:45.144 : en:Chapter 04 / en:Chapter 04
00:13:09.121 : en:Chapter 05 / en:Chapter 05
00:14:19.358 : en:Chapter 06 / en:Chapter 06
00:15:33.057 : en:Chapter 07 / en:Chapter 07
00:17:48.567 : en:Chapter 08 / en:Chapter 08
00:19:56.987 : en:Chapter 09 / en:Chapter 09
00:21:49.433 : en:Chapter 10 / en:Chapter 10
00:24:10.449 : en:Chapter 11 / en:Chapter 11
00:29:05.034 : en:Chapter 12 / en:Chapter 12
00:33:58.870 : en:Chapter 13 / en:Chapter 13
00:35:18.157 : en:Chapter 14 / en:Chapter 14
00:38:31.016 : en:Chapter 15 / en:Chapter 15
00:44:26.163 : en:Chapter 16 / en:Chapter 16
00:47:38.605 : en:Chapter 17 / en:Chapter 17
00:49:10.697 : en:Chapter 18 / en:Chapter 18
00:52:25.392 : en:Chapter 19 / en:Chapter 19
01:03:01.068 : en:Chapter 20 / en:Chapter 20
01:07:16.198 : en:Chapter 21 / en:Chapter 21
01:16:37.591 : en:Chapter 22 / en:Chapter 22
01:21:44.357 : en:Chapter 23 / en:Chapter 23
01:24:39.448 : en:Chapter 24 / en:Chapter 24
01:29:25.443 : en:Chapter 25 / en:Chapter 25
01:34:29.246 : en:Chapter 26 / en:Chapter 26
01:47:49.588 : en:Chapter 27 / en:Chapter 27
01:49:28.061 : en:Chapter 28 / en:Chapter 28
01:55:14.073 : en:Chapter 29 / en:Chapter 29


ОРТ, НТВ, Визгунов.
ЦитатаКто-то писал:
Fikaloid - собственная запись перевода с телеканала ОРТ в 2000-х годах через видеомагнитофон и оцифровка с видеокассеты + оцифровка Визгунова со своей собственной видеокассеты.
Kino-Profan - собственная запись перевода с телеканала НТВ в конце 90-х годов через видеомагнитофон и оцифровка с видеокассеты.
JUSTKANT - синхронизация переводов.
Twister, Гаврилов (ранний) - undre19
ЦитатаКто-то писал:
Дорожка с ранним переводом Гаврилова предоставлена Синта Рурони
Blu-Ray Remux - arkan12


_________________
Проголосуй за трекер Открытый торрент трекер - RUS-MEDIA.ORG

Проголосуй Открытый торрент трекер - RUS-MEDIA.ORG


Вернуться к началу
 Профиль Отправить личное сообщение  
 
   Похожие торренты   Автор   Торрент   Размер 
В этой теме нет новых непрочитанных сообщений. Прибытие / Arrival [фантастика, триллер, драма, детектив, 2016] BDRip 720p, Dub+Sub [Лицензия]

salma3

179 | 62

7.08 ГБ

В этой теме нет новых непрочитанных сообщений. Прибытие / Arrival (фантастика, триллер, драма, детектив, 2016) BDRip 720p от HELLYWOOD | iTunes, A

marya111

1115 | 199

5.55 ГБ

В этой теме нет новых непрочитанных сообщений. Прибытие / Arrival [фантастика, триллер, драма, детектив, 2016] BDRip 720p, Dub [iPad] [Лицензия]

salma3

197 | 32

1.17 ГБ

В этой теме нет новых непрочитанных сообщений. Прибытие / Arrival [фантастика, триллер, драма, 2016] BDRip-AVC, Dub+Sub [Лицензия]

salma3

250 | 89

2.18 ГБ

В этой теме нет новых непрочитанных сообщений. Прибытие / Arrival [фантастика, триллер, драма, 2016] BDRip, Dub+Sub [лицензия]

salma3

650 | 173

1.46 ГБ

В этой теме нет новых непрочитанных сообщений. Прибытие / Arrival [фантастика, триллер, драма, 2016] BDRip-AVC, Dub+Sub [Лицензия]

salma3

266 | 92

1.46 ГБ

В этой теме нет новых непрочитанных сообщений. Прибытие / Arrival [фантастика, триллер, драма, детектив, 2016] WEB-DL 720p, Dub [чистый звук]

salma3

640 | 191

3.86 ГБ


Начать новую тему Ответить на тему  [ 1 сообщение ] 




Для Мосгорсуда, Роскомнадзора и рекламодателей:: mosgorsud-torrent[собачка]yandex.ru
cron