Торрент файл
скачать торрент магнет ссылка Добавлен: 14 янв 2017, 12:19
Размер: 4.87 ГБ
Сидеров: 144
Личеров: 41
Статус: (salma3)
Автор

СообщениеДобавлено: 14 янв 2017, 12:19 

Не в сети
Супермодератор
Аватара пользователя
Дата регистрации:
15 фев 2012, 16:44
Возраст: 29
Спасибо: 7377 / 2147
Сообщения: 75818
Год выхода: 2014
Жанр: Драма, криминал
Режиссер: Герард Джонсон

В ролях: Питер Фердинандо, Стивен Грэм, Нил Мэскелл, Элиза Ласовски, МайАнна Бёринг, Ричард Дормер, Гордон Браун, Тони Питтс, Орли Шука, Джеват Келменди

О фильме:
Быть хорошим полицейским не означает делать все по учебнику. Но, когда преступная деятельность в Лондоне идет на пользу албанцам и туркам, как выжить «хорошему» полицейскому?



Выпущено: Великобритания / Film4, Number 9 Films
Продолжительность: 01:52:32
Перевод: Авторский (М. Чадов)

Файл
Формат: MKV
Качество: BDRip 720p
Видео: MPEG-4 AVC, 4050 Кбит/с, 1280x536
Звук: Русский (AC3, 6 ch, 640 Кбит/с), английский (DTS, 6 ch, 1509 Кбит/с)
Субтитры: Английские, французские

Семпл

Общее
Уникальный идентификатор : 253379795720710638369169231040615077035 (0xBE9F2C704572723AAEF17E3CFCB8D4AB)
Полное имя : E:Раздача-BDRipGiena.2014.BDRip 720p.mkv
Формат : Matroska
Версия формата : Version 2
Размер файла : 4,87 Гбайт
Продолжительность : 1 ч. 52 м.
Общий поток : 6201 Кбит/сек
Название фильма : Hyena (2014) BDRip 720p
Дата кодирования : UTC 2017-01-09 22:33:06
Программа кодирования : mkvmerge v5.8.0 ('No Sleep / Pillow') built on Sep 2 2012 15:37:04
Библиотека кодирования : libebml v1.2.3 + libmatroska v1.3.0
Видео
Идентификатор : 1
Формат : AVC
Формат/Информация : Advanced Video Codec
Профиль формата : High@L4.1
Параметр CABAC формата : Да
Параметр ReFrames формата : 5 кадров
Идентификатор кодека : V_MPEG4/ISO/AVC
Продолжительность : 1 ч. 52 м.
Битрейт : 4050 Кбит/сек
Ширина : 1280 пикселей
Высота : 536 пикселей
Соотношение сторон : 2,40:1
Режим частоты кадров : Постоянный
Частота кадров : 24,000 кадра/сек
Цветовое пространство : YUV
Субдискретизация насыщенности : 4:2:0
Битовая глубина : 8 бит
Тип развёртки : Прогрессивная
Бит/(Пиксели*Кадры) : 0.246
Размер потока : 3,09 Гбайт (63%)
Библиотека кодирования : x264 core 148 r2597 e86f3a1
Настройки программы : cabac=1 / ref=5 / deblock=1:-3:-3 / analyse=0x3:0x113 / me=umh / subme=8 / psy=1 / psy_rd=1.00:0.00 / mixed_ref=1 / me_range=16 / chroma_me=1 / trellis=1 / 8x8dct=1 / cqm=0 / deadzone=21,11 / fast_pskip=1 / chroma_qp_offset=-2 / threads=17 / lookahead_threads=2 / sliced_threads=0 / nr=0 / decimate=1 / interlaced=0 / bluray_compat=0 / constrained_intra=0 / bframes=3 / b_pyramid=2 / b_adapt=2 / b_bias=0 / direct=3 / weightb=1 / open_gop=0 / weightp=2 / keyint=240 / keyint_min=24 / scenecut=40 / intra_refresh=0 / rc_lookahead=50 / rc=2pass / mbtree=1 / bitrate=4050 / ratetol=1.0 / qcomp=0.60 / qpmin=0 / qpmax=69 / qpstep=4 / cplxblur=20.0 / qblur=0.5 / ip_ratio=1.40 / aq=1:1.00
Язык : English
Default : Да
Forced : Нет
Аудио #1
Идентификатор : 2
Формат : AC-3
Формат/Информация : Audio Coding 3
Расширение режима : CM (complete main)
Параметр Endianness формата : Big
Идентификатор кодека : A_AC3
Продолжительность : 1 ч. 52 м.
Вид битрейта : Постоянный
Битрейт : 640 Кбит/сек
Каналы : 6 каналов
Расположение каналов : Front: L C R, Side: L R, LFE
Частота : 48,0 КГц
Битовая глубина : 16 бит
Метод сжатия : С потерями
Размер потока : 515 Мбайт (10%)
Заголовок : AVO ( М. Чадов)
Язык : Russian
Default : Да
Forced : Да
Аудио #2
Идентификатор : 3
Формат : DTS
Формат/Информация : Digital Theater Systems
Режим : 16
Параметр Endianness формата : Big
Идентификатор кодека : A_DTS
Продолжительность : 1 ч. 52 м.
Вид битрейта : Постоянный
Битрейт : 1509 Кбит/сек
Каналы : 6 каналов
Расположение каналов : Front: L C R, Side: L R, LFE
Частота : 48,0 КГц
Битовая глубина : 24 бит
Метод сжатия : С потерями
Задержка видео : 11 мс.
Размер потока : 1,19 Гбайт (24%)
Заголовок : Original
Язык : English
Default : Нет
Forced : Нет
Текст #1
Идентификатор : 4
Формат : UTF-8
Идентификатор кодека : S_TEXT/UTF8
Идентификатор кодека/Информация : UTF-8 Plain Text
Язык : English
Default : Нет
Forced : Нет
Текст #2
Идентификатор : 5
Формат : UTF-8
Идентификатор кодека : S_TEXT/UTF8
Идентификатор кодека/Информация : UTF-8 Plain Text
Заголовок : Forced
Язык : French
Default : Да
Forced : Да
Меню
00:00:00.000 : en:00:00:00.000
00:08:44.708 : en:00:08:44.708
00:19:15.958 : en:00:19:15.958
00:26:14.417 : en:00:26:14.417
00:35:18.417 : en:00:35:18.417
00:46:03.583 : en:00:46:03.583
00:56:42.333 : en:00:56:42.333
01:08:36.375 : en:01:08:36.375
01:19:43.917 : en:01:19:43.917
01:28:57.708 : en:01:28:57.708
01:35:56.917 : en:01:35:56.917
01:47:59.750 : en:01:47:59.750


_________________
Проголосуй за трекер Открытый торрент трекер - RUS-MEDIA.ORG

Проголосуй Открытый торрент трекер - RUS-MEDIA.ORG


Вернуться к началу
 Профиль Отправить личное сообщение  
 
   Похожие торренты   Автор   Торрент   Размер 
В этой теме нет новых непрочитанных сообщений. Гиена / Hyena [драма, криминал, 2014] HDRip, avo

marya111

0 | 0

2.06 ГБ

В этой теме нет новых непрочитанных сообщений. Гиена / Hyena [Драма, криминал, 2014] HDRip-AVC, avo

marya111

18 | 1

749.02 МБ

В этой теме нет новых непрочитанных сообщений. Гиена / Hyena [Драма, криминал, 2014] HDRip, avo

marya111

92 | 11

1.46 ГБ

В этой теме нет новых непрочитанных сообщений. Гиена / Hyena [Драма, криминал, 2014] HDRip, Avo

marya111

27 | 3

745.63 МБ

В этой теме нет новых непрочитанных сообщений. Тропа гиены / Hyena Road [драма, военный, 2015] BDRip 1080p, Avo

salma3

66 | 41

13.73 ГБ

В этой теме нет новых непрочитанных сообщений. Бесстрашная гиена 2 / Long teng hu yue [Боевик, боевые искусства, комедия, 1983] BDRip 1080p, Mvo

salma3

13 | 7

5.85 ГБ

В этой теме нет новых непрочитанных сообщений. Подпольная Империя / Boardwalk Empire [S01-05] (Тимоти Ван Паттен, Аллен Култер) [Драма, Криминал, 2010-2014] BDRip, HDTVRip 720p, Mvo+Avo

Dracon

23 | 95

143.16 ГБ


Начать новую тему Ответить на тему  [ 1 сообщение ] 




Для Мосгорсуда, Роскомнадзора и рекламодателей:: mosgorsud-torrent[собачка]yandex.ru
cron