Торрент файл
скачать торрент магнет ссылка Добавлен: 13 янв 2017, 21:54
Размер: 5.26 ГБ
Сидеров: 92
Личеров: 21
Статус: (salma3)
Автор

СообщениеДобавлено: 13 янв 2017, 21:54 

Не в сети
Супермодератор
Аватара пользователя
Дата регистрации:
15 фев 2012, 16:44
Возраст: 28
Спасибо: 7204 / 2147
Сообщения: 65240
Перевод: Профессиональный (полное дублирование)
Cубтитры: русские, английскиe
Формат: BDRip, MKV, H.264, DTS/AC3
Страна: США
Режиссер: Люк Скотт
Жанр: ужасы, фантастика, триллер, детектив
Продолжительность: 01:31:52
Год выпуска: 2016

В ролях: Кейт Мара, Аня Тейлор-Джой, Роуз Лесли, Майкл Йар, Тоби Джонс, Крис Салливан, Бойд Холбрук, Винетт Робинсон, Мишель Йео, Брайан Кокс

Описание: Сотрудница по устранению аварий отправляется в отдаленный секретный филиал, где должна расследовать и оценить потери от ужасной катастрофы. На месте она узнает, что случившееся было вызвано, казалось бы, невинным «человеком», чье существование само по себе является опасной тайной.

Рейтинг на IMDB: 5.8/10
Рейтинг MPAA: R
Рейтинг на Кинопоиск.RU: 5.658

Видео: 1280x536p (2.40:1), 23.976 fps, AVC MPEG-4 (x264), , ~ 5526 Кbps avg, 0.336 bit/pixel

Аудио#1: Русский: 48 kHz, DTS, 3/2 (L,C,R,l,r) + LFE ch, ~768.00 kbps avg [Профессиональный (полное дублирование) BD EUR]
Аудио#2: Английский: 48 kHz, DTS, 3/2 (L,C,R,l,r) + LFE ch, ~1509.00 kbps avg [Оригинал]
Аудио#3: Английский: 48 kHz, AC3, 2/0 (L,R) ch, ~224.00 [Комментарий]

Общее
Уникальный идентификатор : 182086445361566379979819479285785491897 (0x88FC92E1DCC7E20A99857B3DAA54F9B9)
Полное имя : D:\Morgan.BDRip.720p.mkv
Формат : Matroska
Версия формата : Version 2
Размер файла : 5,26 Гбайт
Продолжительность : 1 ч. 31 м.
Общий поток : 8190 Кбит/сек
Дата кодирования : UTC 2017-01-13 13:35:03
Программа кодирования : mkvmerge v5.6.0 ('Kenya Kane') built on May 27 2012 16:44:04
Библиотека кодирования : libebml v1.2.3 + libmatroska v1.3.0

Видео
Идентификатор : 1
Формат : AVC
Формат/Информация : Advanced Video Codec
Профиль формата :
Параметр CABAC формата : Да
Параметр ReFrames формата : 12 кадров
Идентификатор кодека : V_MPEG4/ISO/AVC
Продолжительность : 1 ч. 31 м.
Битрейт : 5526 Кбит/сек
Ширина : 1280 пикселей
Высота : 536 пикселей
Соотношение сторон : 2,40:1
Режим частоты кадров : Постоянный
Частота кадров : 23,976 кадра/сек
Цветовое пространство : YUV
Субдискретизация насыщенности : 4:2:0
Битовая глубина : 8 бит
Тип развёртки : Прогрессивная
Бит/(Пиксели*Кадры) : 0.336
Размер потока : 3,55 Гбайт (67%)
Библиотека кодирования : x264 core 148 r2721kMod 72d53ab
Настройки программы : cabac=1 / ref=12 / deblock=1:-3:-3 / analyse=0x3:0x133 / me=umh / subme=10 / psy=1 / fade_compensate=0.00 / psy_rd=1.05:0.00 / mixed_ref=1 / me_range=32 / chroma_me=1 / trellis=2 / 8x8dct=1 / cqm=0 / deadzone=21,11 / fast_pskip=0 / chroma_qp_offset=-2 / threads=8 / lookahead_threads=1 / sliced_threads=0 / nr=0 / decimate=0 / interlaced=0 / bluray_compat=0 / constrained_intra=0 / fgo=0 / bframes=9 / b_pyramid=2 / b_adapt=2 / b_bias=0 / direct=3 / weightb=1 / open_gop=0 / weightp=2 / keyint=250 / keyint_min=23 / scenecut=40 / intra_refresh=0 / rc_lookahead=150 / rc=crf / mbtree=0 / crf=15.5000 / qcomp=0.65 / qpmin=0 / qpmax=69 / qpstep=4 / vbv_maxrate=62500 / vbv_bufsize=78125 / crf_max=0.0 / nal_hrd=none / filler=0 / ip_ratio=1.30 / pb_ratio=1.20 / aq=3:0.75
Язык : English
Default : Да
Forced : Нет
Коэффициенты матрицы : BT.709

Аудио #1
Идентификатор : 2
Формат : DTS
Формат/Информация : Digital Theater Systems
Режим : 16
Параметр Endianness формата : Big
Режим смешивания : Header stripping
Идентификатор кодека : A_DTS
Продолжительность : 1 ч. 31 м.
Вид битрейта : Постоянный
Битрейт : 768 Кбит/сек
Каналы : 6 каналов
Расположение каналов : Front: L C R, Side: L R, LFE
Частота : 48,0 КГц
Битовая глубина : 24 бит
Метод сжатия : С потерями
Размер потока : 505 Мбайт (9%)
Язык : Russian
Default : Да
Forced : Нет

Аудио #2
Идентификатор : 3
Формат : DTS
Формат/Информация : Digital Theater Systems
Режим : 16
Параметр Endianness формата : Big
Режим смешивания : Header stripping
Идентификатор кодека : A_DTS
Продолжительность : 1 ч. 31 м.
Вид битрейта : Постоянный
Битрейт : 1509 Кбит/сек
Каналы : 6 каналов
Расположение каналов : Front: L C R, Side: L R, LFE
Частота : 48,0 КГц
Битовая глубина : 24 бит
Метод сжатия : С потерями
Размер потока : 992 Мбайт (18%)
Язык : English
Default : Нет
Forced : Нет

Аудио #3
Идентификатор : 4
Формат : AC-3
Формат/Информация : Audio Coding 3
Расширение режима : CM (complete main)
Параметр Endianness формата : Big
Режим смешивания : Header stripping
Идентификатор кодека : A_AC3
Продолжительность : 1 ч. 31 м.
Вид битрейта : Постоянный
Битрейт : 224 Кбит/сек
Каналы : 2 канала
Расположение каналов : Front: L R
Частота : 48,0 КГц
Битовая глубина : 16 бит
Метод сжатия : С потерями
Размер потока : 147 Мбайт (3%)
Заголовок : Commentary
Язык : English
Default : Нет
Forced : Нет

Текст #1
Идентификатор : 5
Формат : UTF-8
Идентификатор кодека : S_TEXT/UTF8
Идентификатор кодека/Информация : UTF-8 Plain Text
Заголовок : Forced, iTunes
Язык : Russian
Default : Да
Forced : Нет

Текст #2
Идентификатор : 6
Формат : UTF-8
Идентификатор кодека : S_TEXT/UTF8
Идентификатор кодека/Информация : UTF-8 Plain Text
Заголовок : iTunes
Язык : Russian
Default : Нет
Forced : Нет

Текст #3
Идентификатор : 7
Формат : UTF-8
Идентификатор кодека : S_TEXT/UTF8
Идентификатор кодека/Информация : UTF-8 Plain Text
Заголовок : Forced, iTunes
Язык : English
Default : Нет
Forced : Нет

Текст #4
Идентификатор : 8
Формат : UTF-8
Идентификатор кодека : S_TEXT/UTF8
Идентификатор кодека/Информация : UTF-8 Plain Text
Заголовок : iTunes
Язык : English
Default : Нет
Forced : Нет

Текст #5
Идентификатор : 9
Формат : UTF-8
Идентификатор кодека : S_TEXT/UTF8
Идентификатор кодека/Информация : UTF-8 Plain Text
Язык : English
Default : Нет
Forced : Нет

Текст #6
Идентификатор : 10
Формат : UTF-8
Идентификатор кодека : S_TEXT/UTF8
Идентификатор кодека/Информация : UTF-8 Plain Text
Заголовок : SDH
Язык : English
Default : Нет
Forced : Нет

Меню
00:00:00.000 : en:Chapter 1
00:03:43.098 : en:Chapter 2
00:07:22.400 : en:Chapter 3
00:11:41.784 : en:Chapter 4
00:16:04.338 : en:Chapter 5
00:20:30.271 : en:Chapter 6
00:25:36.326 : en:Chapter 7
00:28:45.515 : en:Chapter 8
00:34:20.267 : en:Chapter 9
00:37:17.861 : en:Chapter 10
00:40:46.110 : en:Chapter 11
00:43:47.124 : en:Chapter 12
00:48:14.225 : en:Chapter 13
00:51:28.752 : en:Chapter 14
00:54:45.991 : en:Chapter 15
00:59:51.046 : en:Chapter 16
01:03:44.404 : en:Chapter 17
01:08:01.619 : en:Chapter 18
01:11:43.758 : en:Chapter 19
01:13:46.422 : en:Chapter 20
01:17:03.702 : en:Chapter 21
01:20:01.672 : en:Chapter 22
01:22:32.531 : en:Chapter 23
01:25:10.939 : en:Chapter 24



_________________
Проголосуй за трекер Открытый торрент трекер - RUS-MEDIA.ORG

Проголосуй Открытый торрент трекер - RUS-MEDIA.ORG


Вернуться к началу
 Профиль Отправить личное сообщение  
 
   Похожие торренты   Автор   Торрент   Размер 
В этой теме нет новых непрочитанных сообщений. Морган / Morgan [ужасы, фантастика, триллер, детектив, 2016] BDRip, Dub+Sub [Лицензия]

salma3

367 | 123

745.64 МБ

В этой теме нет новых непрочитанных сообщений. Морган / Morgan [ужасы, фантастика, триллер, детектив, 2016] BDRip, Dub+Sub [Лицензия]

salma3

1469 | 569

1.46 ГБ

В этой теме нет новых непрочитанных сообщений. Морган / Morgan [ужасы, фантастика, триллер, 2016] BDRip 720p, Dub [iPad] [Лицензия]

salma3

41 | 20

1.56 ГБ

В этой теме нет новых непрочитанных сообщений. Морган / Morgan ( ужасы, фантастика, триллер, детектив, 2016) BDRip 720p от HELLYWOOD | iTunes

marya111

705 | 92

3.69 ГБ

В этой теме нет новых непрочитанных сообщений. Морган / Morgan (ужасы, фантастика, триллер, детектив, 2016) BDRip 1080p от New-Team | iTunes

marya111

1995 | 272

8.91 ГБ

В этой теме нет новых непрочитанных сообщений. Морган / Morgan [ужасы, фантастика, триллер, детектив, 2016] WEB-DL 1080p, Dub [iTunes]

salma3

192 | 51

3.43 ГБ

В этой теме нет новых непрочитанных сообщений. Кукла / The Boy [Ужасы, триллер, детектив, 2016] BDRip 720p, Dub [Лицензия]

salma3

0 | 0

5.84 ГБ


Начать новую тему Ответить на тему  [ 1 сообщение ] 




Для Мосгорсуда, Роскомнадзора и рекламодателей:: mosgorsud-torrent[собачка]yandex.ru
cron