Торрент файл
скачать торрент магнет ссылка Добавлен: 12 янв 2017, 12:36
Размер: 2.13 ГБ
Сидеров: 40
Личеров: 6
Статус: (salma3)
Автор

СообщениеДобавлено: 12 янв 2017, 12:36 

Не в сети
Супермодератор
Аватара пользователя
Дата регистрации:
15 фев 2012, 16:44
Возраст: 27
Спасибо: 5851 / 2114
Сообщения: 26999
Год выхода: 2002
Жанр: Драма, комедия
Режиссер: Патриция Кардосо / Patricia Cardoso

В ролях: Америка Феррера, Люпе Онтиверос, Ингрид Олиу, Джордж Лопез, Брайан Сайтс, Соледад Ст. Хилейр, Лурдес Перез, Хорхе Сервера мл., Фелипе Де Альба, Хосе Жерардо Замора мл.

О фильме:
Покинуть отчий дом, поступить в колледж и начать самостоятельную жизнь? Или остаться дома, выйти замуж и работать на швейной фабрике, где работают сестра и мать? На первый взгляд может показаться, что выбор очевиден, но для восемнадцатилетней Аны, выбор, который ей предстоит сделать, определит ее дальнейшую судьбу. Жизнеутверждающая история о юной девушке из мексиканского квартала Лос-Анджелеса, вступающей во взрослую жизнь, полную соблазнов и разочарований, правдивый и ироничный рассказ о реальных проблемах реальных латиноамериканских женщин. Сейчас Ана шьет одежду для худых красоток, но скоро она поймет, что настоящие женщины дерзают, ошибаются, любят жизнь и, конечно же… всегда в теле!



Страна: США
Продолжительность: 01:22:47.880
Перевод: Профессиональный (многоголосый закадровый) "Нова Медиа" по заказу "Amedia ТВ"

Файл
Кодек: h.264
Качество: HDTVRip 720p Исходник HDTV 1080 Amedia HIT
Видео: 1280x720 (16:9), 25.000 fps, AVC, ~3233 Kbps, 0.140 bits/pixel
Звук:
Русский, 48.0 KHz, MP2, 2 ch, 192 Kbps
Английский, 48.0 KHz, AC3, 2 ch, 192 Kbps
Субтитры:
нет
фразы на испанском дублированы англ. прошитыми субтитрами
Общее
Уникальный идентификатор : 206400399183123721049038472701835943368 (0x9B47455BCD1DB666852D41B2EC3F1DC8)
Полное имя : E:FILMSNastojashhie_zhenshhiny_vsegda_v_tele.2002.HDTVRip720p.mkv
Формат : Matroska
Версия формата : Version 4 / Version 2
Размер файла : 2,13 Гбайт
Продолжительность : 1 ч. 22 м.
Общий поток : 3690 Кбит/сек
Дата кодирования : UTC 2017-01-10 05:01:26
Программа кодирования : mkvmerge v9.7.1 ('Pandemonium') 64bit
Библиотека кодирования : libebml v1.3.4 + libmatroska v1.4.5

Видео
Идентификатор : 1
Формат : AVC
Формат/Информация : Advanced Video Codec
Профиль формата : High@L4.1
Параметр CABAC формата : Да
Параметр ReFrames формата : 9 кадров
Идентификатор кодека : V_MPEG4/ISO/AVC
Продолжительность : 1 ч. 22 м.
Битрейт : 3304 Кбит/сек
Ширина : 1280 пикселей
Высота : 720 пикселей
Соотношение сторон : 16:9
Режим частоты кадров : Постоянный
Частота кадров : 25,000 кадров/сек
Цветовое пространство : YUV
Субдискретизация насыщенности : 4:2:0
Битовая глубина : 8 бит
Тип развёртки : Прогрессивная
Бит/(Пиксели*Кадры) : 0.143
Размер потока : 1,91 Гбайт (90%)
Библиотека кодирования : x264 core 148 r2638 7599210
Настройки программы : cabac=1 / ref=9 / deblock=1:-3:-3 / analyse=0x3:0x133 / me=umh / subme=11 / psy=1 / psy_rd=1.10:0.15 / mixed_ref=1 / me_range=48 / chroma_me=1 / trellis=2 / 8x8dct=1 / cqm=0 / deadzone=21,11 / fast_pskip=0 / chroma_qp_offset=-3 / threads=8 / lookahead_threads=2 / sliced_threads=0 / nr=0 / decimate=0 / interlaced=0 / bluray_compat=0 / constrained_intra=0 / bframes=10 / b_pyramid=2 / b_adapt=2 / b_bias=0 / direct=3 / weightb=1 / open_gop=0 / weightp=2 / keyint=250 / keyint_min=25 / scenecut=40 / intra_refresh=0 / rc_lookahead=60 / rc=crf / mbtree=0 / crf=19.3 / qcomp=0.60 / qpmin=0 / qpmax=69 / qpstep=4 / vbv_maxrate=40000 / vbv_bufsize=50000 / crf_max=0.0 / nal_hrd=none / filler=0 / ip_ratio=1.40 / pb_ratio=1.30 / aq=1:1.00
Default : Нет
Forced : Нет
Цветовой диапазон : Limited
Основные цвета : BT.709
Характеристики трансфера : BT.709
Коэффициенты матрицы : BT.709

Аудио #1
Идентификатор : 2
Формат : MPEG Audio
Версия формата : Version 1
Профиль формата : Layer 2
Режим : Joint stereo
Расширение режима : Intensity Stereo + MS Stereo
Идентификатор кодека : A_MPEG/L2
Идентификатор кодека/Подсказка : MP2
Продолжительность : 1 ч. 22 м.
Вид битрейта : Постоянный
Битрейт : 192 Кбит/сек
Каналы : 2 канала
Частота : 48,0 КГц
Частота кадров : 41,667 кадра/сек (1152 spf)
Метод сжатия : С потерями
Размер потока : 114 Мбайт (5%)
Язык : Russian
Default : Да
Forced : Нет

Аудио #2
Идентификатор : 3
Формат : AC-3
Формат/Информация : Audio Coding 3
Расширение режима : CM (complete main)
Параметр Endianness формата : Big
Идентификатор кодека : A_AC3
Продолжительность : 1 ч. 22 м.
Вид битрейта : Постоянный
Битрейт : 192 Кбит/сек
Каналы : 2 канала
Расположение каналов : Front: L R
Частота : 48,0 КГц
Частота кадров : 31,250 кадров/сек (1536 spf)
Битовая глубина : 16 бит
Метод сжатия : С потерями
Размер потока : 114 Мбайт (5%)
Язык : English
Default : Нет
Forced : Нет


Релиз от: Temperest


_________________
Проголосуй за трекер Открытый торрент трекер - RUS-MEDIA.ORG




реклама партнёра


Вернуться к началу
 Профиль Отправить личное сообщение  
 
   Похожие торренты   Автор   Торрент   Размер 
В этой теме нет новых непрочитанных сообщений. Настоящие женщины всегда в теле / Real Women Have Curves [Драма, комедия, 2002] HDTV 1080i, Mvo

salma3

42 | 23

4.17 ГБ

В этой теме нет новых непрочитанных сообщений. Настоящие О’Нилы / The Real O'Neals [02х01-12 из 13] (Комедия, 2016-2017) HDTVRip 720p | Sunshine Studio

marya111

2 | 11

6.37 ГБ

В этой теме нет новых непрочитанных сообщений. Мужчины, женщины и дети / Men, Women & Children [драма, комедия, 2014] WEBRip 720p [Gears Media]

Dracon

501 | 20

4.24 ГБ

В этой теме нет новых непрочитанных сообщений. Мужчины, женщины и дети / Men, Women & Children (Джейсон Рейтмен) [драма, комедия, 2014] BDRip 720p, Dub+Sub [Лицензия]

Dracon

29 | 2

7.67 ГБ

В этой теме нет новых непрочитанных сообщений. Женщины на грани нервного срыва / Women on the Verge of a Nervous Breakdown [Драма, комедия, 1988] BDRip 720p, Mvo+Sub

salma3

75 | 5

5.32 ГБ

В этой теме нет новых непрочитанных сообщений. Женщины ХХ века / 20th Century Women [драма, комедия, 2016] WEBDLRip, Mvo

salma3

206 | 29

1.37 ГБ

В этой теме нет новых непрочитанных сообщений. Women Seeking Women 129/Женщины В Поисках Женщин 129(Girlfriends Films)[2016 г., All Girl,Lesbian,Strap-On,404p,DVDRip]

salma3

0 | 0

1.2 ГБ


Начать новую тему Ответить на тему  [ 1 сообщение ] 




Для Мосгорсуда, Роскомнадзора и рекламодателей:: mosgorsud-torrent[собачка]yandex.ru