Торрент файл
скачать торрент магнет ссылка Добавлен: 11 янв 2017, 22:14
Размер: 8.64 ГБ
Сидеров: 20
Личеров: 16
Статус: (salma3)
Автор

СообщениеДобавлено: 11 янв 2017, 22:14 

В сети
Супермодератор
Аватара пользователя
Дата регистрации:
15 фев 2012, 16:44
Возраст: 27
Спасибо: 6147 / 2121
Сообщения: 31432
Год выхода: 1985
Страна: Великобритания, США
Студия: Hemdale, Cinema '84/Greenberg Brothers Partnership
Продолжительность: 01:30:55
Жанр: ужасы, фэнтези
Режиссер: Филипп Мора

В ролях: Кристофер Ли, Энни МакЭнро, Рэб Браун, Марша А. Хант, Сибил Даннинг, Джадд Омен, Ферди Мэйн, Патрик Филд, Джимми Наил, Стивен Броновски, ...

Перевод:
- Профессиональный (двухголосый, закадровый) НТВ+
- Любительский (одноголосый, закадровый) Диктор D.F.V.

О фильме: Сестра американца Бена была оборотнем. Но не по своей воле: ее завлекла в свои сети, а потом убила организация оборотней из Трансильвании. Об этом Бен узнал после похорон от седовласого Стефана, кажется, знавшего про оборотней все. И, Стефан советует Бену и его подружке Дженни поехать в Трансильванию, чтобы уничтожить эту организацию…



Кодек: x264
Качество: BDRip 1080p
Видео: 1920x1040 , 13000 kbps, 23,976 fps
Аудио #1: AC-3, 2 ch, 192 kbps (Rus) - DVO НТВ+
Аудио #2: AC-3, 2 ch, 192 kbps (Rus) - VO Диктор D.F.V.
Аудио #3: AC-3, 2 ch, 224 kbps (Eng)
Субтитры: Английские

x264 [info]: frame I:842 Avg QP:16.07 size:184642
x264 [info]: frame P:26046 Avg QP:18.09 size: 97767
x264 [info]: frame B:103908 Avg QP:20.34 size: 59257
x264 [info]: consecutive B-frames: 1.4% 2.1% 5.7% 15.5% 9.6% 47.5% 14.1% 2.3% 0.9% 0.4% 0.2% 0.2% 0.2%

Общее
Уникальный идентификатор : 200895337363059251898912633818663311736 (0x972308DAFD8E7FDEBBF665C732175978)
Полное имя : Вой 2 Стирба – Сука-оборотень (Howling II Stirba - Werewolf Bitch) 1985 BDRip 1080p.mkv
Формат : Matroska
Версия формата : Version 2
Размер файла : 8,64 Гбайт
Продолжительность : 1 ч. 30 м.
Общий поток : 13,6 Мбит/сек
Дата кодирования : UTC 2017-01-07 17:04:13
Программа кодирования : mkvmerge v4.0.0 ('The Stars were mine') сборка от Jun 6 2010 16:18:42
Библиотека кодирования : libebml v1.0.0 + libmatroska v1.0.0

Видео
Идентификатор : 1
Формат : AVC
Формат/Информация : Advanced Video Codec
Профиль формата : High@L4.1
Параметр CABAC формата : Да
Параметр ReFrames формата : 4 кадра
Идентификатор кодека : V_MPEG4/ISO/AVC
Продолжительность : 1 ч. 30 м.
Битрейт : 13,0 Мбит/сек
Ширина : 1920 пикселей
Высота : 1040 пикселей
Соотношение сторон : 1,85:1
Режим частоты кадров : Постоянный
Частота кадров : 23,976 (24000/1001) кадра/сек
Цветовое пространство : YUV
Субдискретизация насыщенности : 4:2:0
Битовая глубина : 8 бит
Тип развёртки : Прогрессивная
Бит/(Пиксели*Кадры) : 0.272
Размер потока : 8,08 Гбайт (94%)
Библиотека кодирования : x264 core 146 r2538 121396c
Настройки программы : cabac=1 / ref=4 / deblock=1:-3:-3 / analyse=0x3:0x133 / me=umh / subme=11 / psy=1 / psy_rd=1.00:0.00 / mixed_ref=1 / me_range=32 / chroma_me=1 / trellis=2 / 8x8dct=1 / cqm=0 / deadzone=21,11 / fast_pskip=0 / chroma_qp_offset=-2 / threads=12 / lookahead_threads=2 / sliced_threads=0 / nr=0 / decimate=0 / interlaced=0 / bluray_compat=0 / constrained_intra=0 / bframes=12 / b_pyramid=2 / b_adapt=2 / b_bias=0 / direct=3 / weightb=1 / open_gop=0 / weightp=2 / keyint=240 / keyint_min=23 / scenecut=40 / intra_refresh=0 / rc=2pass / mbtree=0 / bitrate=13000 / ratetol=1.0 / qcomp=0.60 / qpmin=0 / qpmax=69 / qpstep=4 / cplxblur=20.0 / qblur=0.5 / ip_ratio=1.40 / pb_ratio=1.30 / aq=1:0.80
Язык : English
Default : Нет
Forced : Нет

Аудио #1
Идентификатор : 2
Формат : AC-3
Формат/Информация : Audio Coding 3
Расширение режима : CM (complete main)
Параметр Endianness формата : Big
Идентификатор кодека : A_AC3
Продолжительность : 1 ч. 30 м.
Вид битрейта : Постоянный
Битрейт : 192 Кбит/сек
Каналы : 2 канала
Расположение каналов : Front: L R
Частота : 48,0 КГц
Частота кадров : 31,250 кадров/сек (1536 spf)
Метод сжатия : С потерями
Размер потока : 125 Мбайт (1%)
Заголовок : DVO НТВ+
Язык : Russian
Default : Нет
Forced : Нет

Аудио #2
Идентификатор : 3
Формат : AC-3
Формат/Информация : Audio Coding 3
Расширение режима : CM (complete main)
Параметр Endianness формата : Big
Идентификатор кодека : A_AC3
Продолжительность : 1 ч. 30 м.
Вид битрейта : Постоянный
Битрейт : 192 Кбит/сек
Каналы : 2 канала
Расположение каналов : Front: L R
Частота : 48,0 КГц
Частота кадров : 31,250 кадров/сек (1536 spf)
Метод сжатия : С потерями
Размер потока : 125 Мбайт (1%)
Заголовок : VO Диктор D.F.V.
Язык : Russian
Default : Нет
Forced : Нет

Аудио #3
Идентификатор : 4
Формат : AC-3
Формат/Информация : Audio Coding 3
Расширение режима : CM (complete main)
Параметр Endianness формата : Big
Идентификатор кодека : A_AC3
Продолжительность : 1 ч. 30 м.
Вид битрейта : Постоянный
Битрейт : 224 Кбит/сек
Каналы : 2 канала
Расположение каналов : Front: L R
Частота : 48,0 КГц
Частота кадров : 31,250 кадров/сек (1536 spf)
Метод сжатия : С потерями
Размер потока : 146 Мбайт (2%)
Язык : English
Default : Нет
Forced : Нет

Текст
Идентификатор : 5
Формат : UTF-8
Идентификатор кодека : S_TEXT/UTF8
Идентификатор кодека/Информация : UTF-8 Plain Text
Язык : English
Default : Нет
Forced : Нет



_________________
Проголосуй за трекер Открытый торрент трекер - RUS-MEDIA.ORG

Проголосуй Открытый торрент трекер - RUS-MEDIA.ORG



реклама партнёра


Вернуться к началу
 Профиль Отправить личное сообщение  
 
   Похожие торренты   Автор   Торрент   Размер 
В этой теме нет новых непрочитанных сообщений. Вой / The Howling [ужасы, 1981] BDRip 1080p, Mvo+Avo+Sub

salma3

20 | 26

8.3 ГБ

В этой теме нет новых непрочитанных сообщений. Воскрешение оборотня / Werewolf Rising [Ужасы, Триллер, 2014] BDRip 1080p, Mvo

salma3

50 | 25

7.35 ГБ

В этой теме нет новых непрочитанных сообщений. Вой / The Howling [ужасы, 1980] BDRip, Mvo+Avo+Sub

salma3

17 | 5

2.18 ГБ

В этой теме нет новых непрочитанных сообщений. Вой: Перерождение / The Howling: Reborn [ужасы, триллер, 2011] BDRemux 1080p, Mvo+Dvo

salma3

16 | 10

19.75 ГБ

В этой теме нет новых непрочитанных сообщений. Оборотень / Ginger Snaps [Ужасы, драма, 2000] BDRemux 1080p, Dvo+Sub

salma3

6 | 4

31.01 ГБ

В этой теме нет новых непрочитанных сообщений. День мертвецов / Day of the Dead [ужасы, драма, 1985] BDRip 1080p, Mvo+Sub

salma3

43 | 3

7.75 ГБ

В этой теме нет новых непрочитанных сообщений. Оборотень / Ginger Snaps [Ужасы, драма, 2000] BDRip 720p, Dvo+Sub

salma3

13 | 3

7.52 ГБ


Начать новую тему Ответить на тему  [ 1 сообщение ] 




Для Мосгорсуда, Роскомнадзора и рекламодателей:: mosgorsud-torrent[собачка]yandex.ru