Торрент файл
скачать торрент магнет ссылка Добавлен: 11 янв 2017, 21:17
Размер: 8.3 ГБ
Сидеров: 20
Личеров: 26
Статус: (salma3)
Автор

СообщениеДобавлено: 11 янв 2017, 21:17 

Не в сети
Супермодератор
Аватара пользователя
Дата регистрации:
15 фев 2012, 16:44
Возраст: 27
Спасибо: 5711 / 2111
Сообщения: 24976
Год выхода: 1981
Страна: США
Продолжительность: 01:30:46
Жанр:
Режиссер: Джо Данте

В ролях: Ди Уоллес-Стоун, Патрик Макни, Дэннис Дуган, Кристофер Стоун, Белинда Бэласки, Кевин МакКарти, Джон Кэррадайн, Слим Пикенс, Элизабет Брукс, Роберт Пикардо, ...

Перевод:
- Профессиональный (многоголосный, закадровый) CP Digital
- Авторский (одноголосый, закадровый) Михалёв Алексей Михайлович
- Субтитры

О фильме: Совершаются многочисленные убийства женщин. Маньяк известен — это некий Эдди, который просит о встрече с ним симпатичную журналистку Карен Уайт. Они встречаются, но при виде своего внезапно трансформирующегося в ужасного монстра собеседника Карен пугается и начинает звать на помощь. Эдди убивает подоспевшая полиция. После перенесенного нервного срыва Карен соглашается пройти лечение в клинике доктора Ваггнера. Но постепенно Карен начинает замечать, что вокруг происходят какие-то странные вещи…



Кодек: x264
Качество: BDRip 1080p
Видео: 1920x1032, 12000 kbps, 24 fps
Аудио #1: AC-3, 6 ch, 448 kbps (Rus) - MVO CP Digital
Аудио #2: AC-3, 6 ch, 448 kbps (Rus) - AVO Михалёв Алексей Михайлович
Аудио #3: AC-3, 2 ch, 192 kbps (Eng)
Субтитры: Русские, Английские

За исходник спасибо - Тарантиныч

x264 [info]: frame I:670 Avg QP:19.97 size:191349
x264 [info]: frame P:26401 Avg QP:22.18 size:115652
x264 [info]: frame B:103634 Avg QP:24.37 size: 48126
x264 [info]: consecutive B-frames: 1.3% 1.3% 3.8% 17.1% 19.8% 49.9% 6.1% 0.3% 0.1% 0.1% 0.1% 0.1% 0.1%

Общее
Уникальный идентификатор : 249399190021863816168255576807492592121 (0xBBA0896CD522424E90D0536E560CA1F9)
Полное имя : Вой 1 (The Howling) 1981 BDRip 1080p.mkv
Формат : Matroska
Версия формата : Version 2
Размер файла : 8,30 Гбайт
Продолжительность : 1 ч. 30 м.
Общий поток : 13,1 Мбит/сек
Дата кодирования : UTC 2017-01-07 12:58:36
Программа кодирования : mkvmerge v4.0.0 ('The Stars were mine') сборка от Jun 6 2010 16:18:42
Библиотека кодирования : libebml v1.0.0 + libmatroska v1.0.0

Видео
Идентификатор : 1
Формат : AVC
Формат/Информация : Advanced Video Codec
Профиль формата : High@L4.1
Параметр CABAC формата : Да
Параметр ReFrames формата : 4 кадра
Идентификатор кодека : V_MPEG4/ISO/AVC
Продолжительность : 1 ч. 30 м.
Битрейт : 12,0 Мбит/сек
Ширина : 1920 пикселей
Высота : 1032 пикселя
Соотношение сторон : 1,85:1
Режим частоты кадров : Постоянный
Частота кадров : 24,000 кадра/сек
Цветовое пространство : YUV
Субдискретизация насыщенности : 4:2:0
Битовая глубина : 8 бит
Тип развёртки : Прогрессивная
Бит/(Пиксели*Кадры) : 0.252
Размер потока : 7,44 Гбайт (90%)
Библиотека кодирования : x264 core 146 r2538 121396c
Настройки программы : cabac=1 / ref=4 / deblock=1:-3:-3 / analyse=0x3:0x133 / me=umh / subme=11 / psy=1 / psy_rd=1.00:0.00 / mixed_ref=1 / me_range=32 / chroma_me=1 / trellis=2 / 8x8dct=1 / cqm=0 / deadzone=21,11 / fast_pskip=0 / chroma_qp_offset=-2 / threads=12 / lookahead_threads=2 / sliced_threads=0 / nr=0 / decimate=0 / interlaced=0 / bluray_compat=0 / constrained_intra=0 / bframes=12 / b_pyramid=2 / b_adapt=2 / b_bias=0 / direct=3 / weightb=1 / open_gop=0 / weightp=2 / keyint=240 / keyint_min=24 / scenecut=40 / intra_refresh=0 / rc_lookahead=60 / rc=2pass / mbtree=0 / bitrate=12000 / ratetol=1.0 / qcomp=0.60 / qpmin=0 / qpmax=69 / qpstep=4 / cplxblur=20.0 / qblur=0.5 / vbv_maxrate=50000 / vbv_bufsize=62500 / nal_hrd=none / filler=0 / ip_ratio=1.40 / pb_ratio=1.30 / aq=1:0.80
Язык : English
Default : Нет
Forced : Нет

Аудио #1
Идентификатор : 2
Формат : AC-3
Формат/Информация : Audio Coding 3
Расширение режима : CM (complete main)
Параметр Endianness формата : Big
Идентификатор кодека : A_AC3
Продолжительность : 1 ч. 30 м.
Вид битрейта : Постоянный
Битрейт : 448 Кбит/сек
Каналы : 6 каналов
Расположение каналов : Front: L C R, Side: L R, LFE
Частота : 48,0 КГц
Частота кадров : 31,250 кадров/сек (1536 spf)
Метод сжатия : С потерями
Размер потока : 291 Мбайт (3%)
Заголовок : MVO CP Digital
Язык : Russian
Default : Нет
Forced : Нет

Аудио #2
Идентификатор : 3
Формат : AC-3
Формат/Информация : Audio Coding 3
Расширение режима : CM (complete main)
Параметр Endianness формата : Big
Идентификатор кодека : A_AC3
Продолжительность : 1 ч. 30 м.
Вид битрейта : Постоянный
Битрейт : 448 Кбит/сек
Каналы : 6 каналов
Расположение каналов : Front: L C R, Side: L R, LFE
Частота : 48,0 КГц
Частота кадров : 31,250 кадров/сек (1536 spf)
Метод сжатия : С потерями
Размер потока : 291 Мбайт (3%)
Заголовок : AVO Михалёв Алексей Михайлович [1944—1994]
Язык : Russian
Default : Нет
Forced : Нет

Аудио #3
Идентификатор : 4
Формат : AC-3
Формат/Информация : Audio Coding 3
Расширение режима : CM (complete main)
Параметр Endianness формата : Big
Идентификатор кодека : A_AC3
Продолжительность : 1 ч. 30 м.
Вид битрейта : Постоянный
Битрейт : 192 Кбит/сек
Каналы : 2 канала
Расположение каналов : Front: L R
Частота : 48,0 КГц
Частота кадров : 31,250 кадров/сек (1536 spf)
Метод сжатия : С потерями
Размер потока : 125 Мбайт (1%)
Язык : English
Default : Нет
Forced : Нет

Текст #1
Идентификатор : 5
Формат : UTF-8
Идентификатор кодека : S_TEXT/UTF8
Идентификатор кодека/Информация : UTF-8 Plain Text
Язык : Russian
Default : Нет
Forced : Нет

Текст #2
Идентификатор : 6
Формат : UTF-8
Идентификатор кодека : S_TEXT/UTF8
Идентификатор кодека/Информация : UTF-8 Plain Text
Язык : English
Default : Нет
Forced : Нет



_________________
Проголосуй за трекер Открытый торрент трекер - RUS-MEDIA.ORG




реклама партнёра


Вернуться к началу
 Профиль Отправить личное сообщение  
 
   Похожие торренты   Автор   Торрент   Размер 
В этой теме нет новых непрочитанных сообщений. Вой 2: Стирба – Сука-оборотень / Howling II: Stirba - Werewolf Bitch [ужасы, фэнтези, 1985] BDRip 1080p, Dvo+Avo+Sub

salma3

20 | 16

8.64 ГБ

В этой теме нет новых непрочитанных сообщений. Вой / The Howling [ужасы, 1980] BDRip, Mvo+Avo+Sub

salma3

17 | 5

2.18 ГБ

В этой теме нет новых непрочитанных сообщений. Вой: Перерождение / The Howling: Reborn [ужасы, триллер, 2011] BDRemux 1080p, Mvo+Dvo

salma3

16 | 10

19.75 ГБ

В этой теме нет новых непрочитанных сообщений. Клуб монстров / The Monster Club [ужасы, комедия, 1981] BDRip 1080p, Avo

salma3

28 | 12

7.35 ГБ

В этой теме нет новых непрочитанных сообщений. Яма / The Pit [ужасы, 1981] BDRip-AVC, Avo

salma3

34 | 4

744.25 МБ

В этой теме нет новых непрочитанных сообщений. Яма / The Pit [Ужасы, 1981] BDRip, Avo

salma3

78 | 14

1.46 ГБ

В этой теме нет новых непрочитанных сообщений. Око за око / An Eye For An Eye [Боевик. 1981] BDRip 1080p, Mvo+Avo

salma3

27 | 40

12.34 ГБ


Начать новую тему Ответить на тему  [ 1 сообщение ] 




Для Мосгорсуда, Роскомнадзора и рекламодателей:: mosgorsud-torrent[собачка]yandex.ru