Торрент файл
скачать торрент магнет ссылка Добавлен: 11 янв 2017, 17:23
Размер: 35.15 ГБ
Сидеров: 39
Личеров: 52
Автор

СообщениеДобавлено: 11 янв 2017, 17:23 

Не в сети
Дата регистрации:
28 сен 2016, 18:10
Спасибо: 159 / 0
Сообщения: 1596
Информация о фильме
Название: Свет в океане
Оригинальное название: The Light Between Oceans
Год выхода: 2016
Жанр: Драма, мелодрама
Режиссер: Дерек Сиенфрэнс
В ролях: Майкл Фассбендер, Алисия Викандер, Рэйчел Вайз, Флоренс Клери, Джек Томпсон, Томас Унгер, Джейн Менелос, Гарри МакДональд, Энтони Хэйес, Бенедикт Харди

О фильме:
Вернувшийся с войны смотритель маяка Том встречает трепетную девушку по имени Изабель. Зародившаяся между ними любовь полностью преображает Изабель и возвращает опустошенному Тому веру в жизнь. Молодожены поселяются на уединенном острове, к берегу которого однажды пристает лодка с новорожденной девочкой. Супруги решают воспитать младенца как родную дочь, не представляя, насколько разрушительными будут последствия этого выбора.


Страна: Великобритания, Новая Зеландия, США
Студия: Amblin Entertainment, DreamWorks SKG
Продолжительность: 02:12:51
Перевод: Дублированный | iTunes
Файл
Качество: BDRemux 1080p
Видео: MPEG-4 AVC, 1920x1080, 32.7 Mbit/s, 23.976 fps
Звук:
Аудио #01: 48 kHz, AC3, 5.1, 384 Kbps | Дублированный | iTunes |
Аудио #02: 48 kHz, DTS-HD MA, 7.1, 4813 kbps | Оригинал |
Субтитры: Русские (full, forced), английские

Общее
Уникальный идентификатор : 181380952793215032340194532706179464428 (0x8874B369C3CF680F98362E5034D5BCEC)
Полное имя : F:VideoThe.Light.Between.Oceans.2016.D.BDREMUX.1080p.ExKinoRay.mkv
Формат : Matroska
Версия формата : Version 4 / Version 2
Размер файла : 35,1 Гбайт
Продолжительность : 2 ч. 12 м.
Режим общего битрейта : Переменный
Общий поток : 37,9 Мбит/сек
Дата кодирования : UTC 2017-01-09 20:20:53
Программа кодирования : mkvmerge v8.3.0 ('Over the Horizon') 64bit
Библиотека кодирования : libebml v1.3.1 + libmatroska v1.4.2

Видео
Идентификатор : 1
Формат : AVC
Формат/Информация : Advanced Video Codec
Профиль формата : High@L4.1
Параметр CABAC формата : Да
Параметр ReFrames формата : 4 кадра
Идентификатор кодека : V_MPEG4/ISO/AVC
Продолжительность : 2 ч. 12 м.
Вид битрейта : Переменный
Битрейт : 32,7 Мбит/сек
Максимальный битрейт : 36,5 Мбит/сек
Ширина : 1920 пикселей
Высота : 1080 пикселей
Соотношение сторон : 16:9
Режим частоты кадров : Постоянный
Частота кадров : 23,976 (24000/1001) кадра/сек
Цветовое пространство : YUV
Субдискретизация насыщенности : 4:2:0
Битовая глубина : 8 бит
Тип развёртки : Прогрессивная
Бит/(Пиксели*Кадры) : 0.657
Размер потока : 30,3 Гбайт (86%)
Язык : English
Default : Да
Forced : Нет

Аудио #1
Идентификатор : 2
Формат : AC-3
Формат/Информация : Audio Coding 3
Расширение режима : CM (complete main)
Параметр Endianness формата : Big
Идентификатор кодека : A_AC3
Продолжительность : 2 ч. 12 м.
Вид битрейта : Постоянный
Битрейт : 384 Кбит/сек
Каналы : 6 каналов
Расположение каналов : Front: L C R, Side: L R, LFE
Частота : 48,0 КГц
Частота кадров : 31,250 кадров/сек (1536 spf)
Битовая глубина : 16 бит
Метод сжатия : С потерями
Размер потока : 365 Мбайт (1%)
Язык : Russian
Default : Да
Forced : Нет

Аудио #2
Идентификатор : 3
Формат : DTS
Формат/Информация : Digital Theater Systems
Профиль формата : MA / Core
Режим : 16
Параметр Endianness формата : Big
Идентификатор кодека : A_DTS
Продолжительность : 2 ч. 12 м.
Вид битрейта : Переменный / Постоянный
Битрейт : 4813 Кбит/сек / 1509 Кбит/сек
Каналы : 8 каналов / 6 каналов
Расположение каналов : Front: L C R, Side: L R, Back: L R, LFE / Front: L C R, Side: L R, LFE
Частота : 48,0 КГц
Частота кадров : 93,750 кадра/сек (512 spf)
Битовая глубина : 24 бит
Метод сжатия : Без потерь / Lossy
Размер потока : 4,47 Гбайт (13%)
Язык : English
Default : Нет
Forced : Нет

Текст #1
Идентификатор : 4
Формат : UTF-8
Идентификатор кодека : S_TEXT/UTF8
Идентификатор кодека/Информация : UTF-8 Plain Text
Продолжительность : 31 м. 28 с.
Битрейт : 2 бит/сек
Count of elements : 6
Размер потока : 489 байт (0%)
Заголовок : Forced [iTunes]
Язык : Russian
Default : Да
Forced : Нет

Текст #2
Идентификатор : 5
Формат : UTF-8
Идентификатор кодека : S_TEXT/UTF8
Идентификатор кодека/Информация : UTF-8 Plain Text
Продолжительность : 2 ч. 5 м.
Битрейт : 62 бит/сек
Count of elements : 1293
Размер потока : 57,0 Кбайт (0%)
Заголовок : Full [iTunes]
Язык : Russian
Default : Нет
Forced : Нет

Текст #3
Идентификатор : 6
Формат : UTF-8
Идентификатор кодека : S_TEXT/UTF8
Идентификатор кодека/Информация : UTF-8 Plain Text
Продолжительность : 2 ч. 6 м.
Битрейт : 47 бит/сек
Count of elements : 1634
Размер потока : 44,1 Кбайт (0%)
Язык : English
Default : Нет
Forced : Нет

Меню
00:00:00.000 : en:00:00:00.000
00:04:55.128 : en:00:04:55.128
00:11:38.531 : en:00:11:38.531
00:17:30.007 : en:00:17:30.007
00:23:07.469 : en:00:23:07.469
00:29:35.816 : en:00:29:35.816
00:35:21.953 : en:00:35:21.953
00:42:35.678 : en:00:42:35.678
00:49:51.822 : en:00:49:51.822
00:55:14.186 : en:00:55:14.186
00:59:26.062 : en:00:59:26.062
01:05:48.027 : en:01:05:48.027
01:10:52.957 : en:01:10:52.957
01:13:14.724 : en:01:13:14.724
01:22:34.032 : en:01:22:34.032
01:31:42.956 : en:01:31:42.956
01:42:29.101 : en:01:42:29.101
01:51:31.018 : en:01:51:31.018
02:01:29.324 : en:02:01:29.324
02:07:08.621 : en:02:07:08.621




Релиз от: Автор релиза:




реклама партнёра


Вернуться к началу
 Профиль Отправить личное сообщение  
 
   Похожие торренты   Автор   Торрент   Размер 
В этой теме нет новых непрочитанных сообщений. Свет в океане / The Light Between Oceans [драма, мелодрама, 2016] WEB-DL 1080p, Dub [iTunes]

salma3

1030 | 335

5.01 ГБ

В этой теме нет новых непрочитанных сообщений. Свет в океане / The Light Between Oceans ( драма, мелодрама, 2016) WEB-DL 1080p | iTunes

marya111

2318 | 295

5.01 ГБ

В этой теме нет новых непрочитанных сообщений. Свет в океане / The Light Between Oceans (Драма, мелодрама, 2016) BDRip 1080p | iTunes

marya111

372 | 81

10.19 ГБ

В этой теме нет новых непрочитанных сообщений. Свет в океане / Свет между океанами / The Light Between Oceans [Драма, мелодрама, 2016] WEB-DLRip, Dub [iTunes]

salma3

8622 | 1233

1.46 ГБ

В этой теме нет новых непрочитанных сообщений. Свет в океане / Свет между океанами / The Light Between Oceans [Драма, мелодрама, 2016] WEB-DLRip, Dub [iTunes]

salma3

748 | 259

2.18 ГБ

В этой теме нет новых непрочитанных сообщений. Свет в океане / The Light Between Oceans [драма, мелодрама, 2016] WEB-DL 720p, Dub [iTunes]

salma3

616 | 283

4.55 ГБ

В этой теме нет новых непрочитанных сообщений. Свет в океане / The Light Between Oceans (Драма, мелодрама, 2016) BDRip от MegaPeer | iTunes

marya111

1893 | 410

1.46 ГБ


Начать новую тему Ответить на тему  [ 1 сообщение ] 




Для Мосгорсуда, Роскомнадзора и рекламодателей:: mosgorsud-torrent[собачка]yandex.ru