Торрент файл
скачать торрент магнет ссылка Добавлен: 10 янв 2017, 21:23
Размер: 9.79 ГБ
Сидеров: 49
Личеров: 18
Статус: (salma3)
Автор

СообщениеДобавлено: 10 янв 2017, 21:23 

Не в сети
Супермодератор
Аватара пользователя
Дата регистрации:
15 фев 2012, 16:44
Возраст: 27
Спасибо: 5950 / 2115
Сообщения: 28426
Год выхода: 2006
Страна: США, Канада
Студия: Dimension Films, 2929 Productions, Adelstein-Parouse Productions
Продолжительность: 01:32:11
Жанр: ужасы, триллер

Режиссер: Глен Морган
В ролях: Кэти Кэссиди, Мишель Трахтенберг, Мэри Элизабет Уинстэд, Лейси Чаберт, Кристен Клоук, Андреа Мартин, Кристал Лоу, Оливер Хадсон, Карин Коновал, Дин Фрисс, ...

Перевод:
- Профессиональный (дублированный) Невафильм
- Авторский (одноголосый, закадровый) Матвеев Алексей
- Авторский (одноголосый, закадровый) Дольский Андрей Игоревич

О фильме: Много лет назад, будучи еще ребенком, своими собственными глазами Билли видел, как его мать жестоко убила отца. А затем заперла его, своего единственного свидетеля, на чердаке. Как собаку. На долгие годы. Но однажды Билли удалось бежать…
Канун Рождества. Школа сестер милосердия оглашается тревожными телефонными звонками. Кто-то упорно терроризирует девушек, произнося зловещим голосом страшные угрозы. И вскоре таинственным образом одна за другой погибают воспитанницы школы…



Кодек: x264
Качество: BDRip 1080p
Видео: 1920x816, 12000 kbps, 23,976 fps
Аудио #1: AC-3, 6 ch, 448 kbps (Rus) - Dub Невафильм + Дольский
Аудио #2: AC-3, 6 ch, 640 kbps (Rus) - AVO Матвеев Алексей (Doctor Joker)
Аудио #3: AC-3, 6 ch, 640 kbps (Rus) - AVO Дольский Андрей Игоревич
Аудио #4: DTS, 6 ch, 1509 kbps (Eng)
Субтитры: Английские

За исходник спасибо - Diablo

- Перевод и озвучивание Алексея Матвеева доступны благодаря Переулку Переводмана.

- Перевод и озвучивание Андрея Дольского осуществлены в рамках сервиса "Озвучивание". Спонсоры: tambov68, dinocrisis, denismgn1987, sadxa, RAUL, tarantinych.
- Исходный диск приобретен в рамках сервиса "Копилка: Помоги с Blu-ray". Благодарим: GRX62, DEVON, Apparabellum, Ruslan250381, ZigoRR, Brown, dsk71
x264 [info]: frame I:963 Avg QP:14.27 size:205247
x264 [info]: frame P:26055 Avg QP:16.31 size:102108
x264 [info]: frame B:105607 Avg QP:18.29 size: 51289
x264 [info]: consecutive B-frames: 2.3% 2.1% 4.8% 8.6% 13.0% 48.4% 10.2% 2.1% 4.0% 2.4% 0.7% 0.8% 0.5%

Общее
Уникальный идентификатор : 237359816103677100747923507778298053364 (0xB291D6765071A0798DF4C560F51002F4)
Полное имя : Черное Рождество (Black Christmas) 2006 HDDVDRip 1080p.mkv
Формат : Matroska
Версия формата : Version 2
Размер файла : 9,79 Гбайт
Продолжительность : 1 ч. 32 м.
Общий поток : 15,2 Мбит/сек
Дата кодирования : UTC 2017-01-10 12:39:52
Программа кодирования : mkvmerge v4.0.0 ('The Stars were mine') сборка от Jun 6 2010 16:18:42
Библиотека кодирования : libebml v1.0.0 + libmatroska v1.0.0

Видео
Идентификатор : 1
Формат : AVC
Формат/Информация : Advanced Video Codec
Профиль формата : High@L4.1
Параметр CABAC формата : Да
Параметр ReFrames формата : 5 кадров
Идентификатор кодека : V_MPEG4/ISO/AVC
Продолжительность : 1 ч. 32 м.
Битрейт : 12,0 Мбит/сек
Ширина : 1920 пикселей
Высота : 816 пикселей
Соотношение сторон : 2,35:1
Режим частоты кадров : Постоянный
Частота кадров : 23,976 (24000/1001) кадра/сек
Цветовое пространство : YUV
Субдискретизация насыщенности : 4:2:0
Битовая глубина : 8 бит
Тип развёртки : Прогрессивная
Бит/(Пиксели*Кадры) : 0.319
Размер потока : 7,51 Гбайт (77%)
Библиотека кодирования : x264 core 146 r2538 121396c
Настройки программы : cabac=1 / ref=5 / deblock=1:-3:-3 / analyse=0x3:0x133 / me=umh / subme=11 / psy=1 / psy_rd=1.00:0.00 / mixed_ref=1 / me_range=32 / chroma_me=1 / trellis=2 / 8x8dct=1 / cqm=0 / deadzone=21,11 / fast_pskip=0 / chroma_qp_offset=-2 / threads=12 / lookahead_threads=2 / sliced_threads=0 / nr=0 / decimate=0 / interlaced=0 / bluray_compat=0 / constrained_intra=0 / bframes=12 / b_pyramid=2 / b_adapt=2 / b_bias=0 / direct=3 / weightb=1 / open_gop=0 / weightp=2 / keyint=240 / keyint_min=23 / scenecut=40 / intra_refresh=0 / rc=2pass / mbtree=0 / bitrate=12000 / ratetol=1.0 / qcomp=0.60 / qpmin=0 / qpmax=69 / qpstep=4 / cplxblur=20.0 / qblur=0.5 / ip_ratio=1.40 / pb_ratio=1.30 / aq=1:0.80
Язык : English
Default : Нет
Forced : Нет

Аудио #1
Идентификатор : 2
Формат : AC-3
Формат/Информация : Audio Coding 3
Расширение режима : CM (complete main)
Параметр Endianness формата : Big
Идентификатор кодека : A_AC3
Продолжительность : 1 ч. 32 м.
Вид битрейта : Постоянный
Битрейт : 448 Кбит/сек
Каналы : 6 каналов
Расположение каналов : Front: L C R, Side: L R, LFE
Частота : 48,0 КГц
Частота кадров : 31,250 кадров/сек (1536 spf)
Метод сжатия : С потерями
Размер потока : 295 Мбайт (3%)
Заголовок : Dub Невафильм (Дольский на расширенные места)
Язык : Russian
Default : Нет
Forced : Нет

Аудио #2
Идентификатор : 3
Формат : AC-3
Формат/Информация : Audio Coding 3
Расширение режима : CM (complete main)
Параметр Endianness формата : Big
Идентификатор кодека : A_AC3
Продолжительность : 1 ч. 32 м.
Вид битрейта : Постоянный
Битрейт : 640 Кбит/сек
Каналы : 6 каналов
Расположение каналов : Front: L C R, Side: L R, LFE
Частота : 48,0 КГц
Частота кадров : 31,250 кадров/сек (1536 spf)
Метод сжатия : С потерями
Размер потока : 422 Мбайт (4%)
Заголовок : AVO Матвеев Алексей (Doctor Joker)
Язык : Russian
Default : Нет
Forced : Нет

Аудио #3
Идентификатор : 4
Формат : AC-3
Формат/Информация : Audio Coding 3
Расширение режима : CM (complete main)
Параметр Endianness формата : Big
Идентификатор кодека : A_AC3
Продолжительность : 1 ч. 32 м.
Вид битрейта : Постоянный
Битрейт : 640 Кбит/сек
Каналы : 6 каналов
Расположение каналов : Front: L C R, Side: L R, LFE
Частота : 48,0 КГц
Частота кадров : 31,250 кадров/сек (1536 spf)
Метод сжатия : С потерями
Размер потока : 422 Мбайт (4%)
Заголовок : AVO Дольский Андрей Игоревич
Язык : Russian
Default : Нет
Forced : Нет

Аудио #4
Идентификатор : 5
Формат : DTS
Формат/Информация : Digital Theater Systems
Режим : 16
Параметр Endianness формата : Big
Идентификатор кодека : A_DTS
Продолжительность : 1 ч. 32 м.
Вид битрейта : Постоянный
Битрейт : 1509 Кбит/сек
Каналы : 6 каналов
Расположение каналов : Front: L C R, Side: L R, LFE
Частота : 48,0 КГц
Частота кадров : 93,750 кадра/сек (512 spf)
Битовая глубина : 24 бит
Метод сжатия : С потерями
Размер потока : 995 Мбайт (10%)
Язык : English
Default : Нет
Forced : Нет

Текст #1
Идентификатор : 6
Формат : UTF-8
Идентификатор кодека : S_TEXT/UTF8
Идентификатор кодека/Информация : UTF-8 Plain Text
Язык : English
Default : Нет
Forced : Нет

Текст #2
Идентификатор : 7
Формат : UTF-8
Идентификатор кодека : S_TEXT/UTF8
Идентификатор кодека/Информация : UTF-8 Plain Text
Заголовок : SDH
Язык : English
Default : Нет
Forced : Нет



_________________
Проголосуй за трекер Открытый торрент трекер - RUS-MEDIA.ORG




реклама партнёра


Вернуться к началу
 Профиль Отправить личное сообщение  
 
   Похожие торренты   Автор   Торрент   Размер 
В этой теме нет новых непрочитанных сообщений. Черное Рождество / Black Nativity [мюзикл, драма, 2013] HDRip, dub [Чистый звук]

Dracon

6 | 4

1.46 ГБ

В этой теме нет новых непрочитанных сообщений. Чёрное море / Black Sea (Кевин МакДональд) [Триллер, приключения, 2014] BDRip 1080p, Mvo [Лицензия]

Dracon

20 | 4

8.71 ГБ

В этой теме нет новых непрочитанных сообщений. [Black] A Touch Of Ebony / Черное Прикосновение (Vito Van Gogh / Combat Zone) (Skin Diamond, Chanell Heart, Tori Taylor, Adriana Malao, Rico Strong...) [2014 г., Straight, Black, WEB-DL 1080p]

friizze

9 | 10

2.38 ГБ

В этой теме нет новых непрочитанных сообщений. Все собаки празднуют Рождество / An All Dogs Christmas Carol [мультфильм, 1998] WEB-DL 1080p, Dub

salma3

64 | 18

3.5 ГБ

В этой теме нет новых непрочитанных сообщений. Очень странное рождество / Рождество с волшебными родителями / A Fairly Odd Christmas (Сэвидж Стив Холланд) [2012, фэнтези, комедия, семейный, SATRip] DUB

Nickolas3435

35 | 6

1.08 ГБ

В этой теме нет новых непрочитанных сообщений. Пережить Рождество / Surviving Christmas [комедия, мелодрама, 2004] BDRip 1080p, Dub+Dvo+2Avo+Sub

salma3

10 | 2

12 ГБ

В этой теме нет новых непрочитанных сообщений. Светлое Рождество / White Christmas [Мюзикл, мелодрама, комедия, 1954] BDRip 1080p, Dvo

salma3

10 | 7

8.7 ГБ


Начать новую тему Ответить на тему  [ 1 сообщение ] 




Для Мосгорсуда, Роскомнадзора и рекламодателей:: mosgorsud-torrent[собачка]yandex.ru