Торрент файл
скачать торрент магнет ссылка Добавлен: 10 янв 2017, 12:41
Размер: 10.29 ГБ
Сидеров: 20
Личеров: 10
Статус: (salma3)
Автор

СообщениеДобавлено: 10 янв 2017, 12:41 

Не в сети
Супермодератор
Аватара пользователя
Дата регистрации:
15 фев 2012, 16:44
Возраст: 28
Спасибо: 7223 / 2147
Сообщения: 67642
Страна: Франция, Италия
Жанр: боевик, триллер
Год выпуска: 1990
Продолжительность: 01:57:03
Перевод: 4 x Профессиональный (многоголосый, закадровый), 2 x Профессиональный (двухголосый, закадровый), 2 x Авторский
Субтитры: русские, английские.
Режиссер: Люк Бессон / Luc Besson

В ролях: Анн Парийо, Марк Дюре, Патрик Фонтана, Лора Шерон, Жак Боде, Патрик Перес, Чеки Карио, Жан-Люк Карон, Жанна Моро, Филип Леруа, Хейке Фишер, Хосе Стайнманн, Жан-Юг Англад, Жан-Пьер Поли, Мишель Кампа, Жан Рено, Жан Буиз

Описание: Никита, молоденькая девушка, под действием наркотиков вместе с друзьями совершает ограбление и убийство. После суда приговор не приводится в исполнение, а Никиту отправляют в школу специальных агентов.



Качество: BDRip
Контейнер: MKV
Видео: AVC, 1280x544 (2.35:1), 8429 kbps, 24 fps, 0,504 bpp
Аудио №1: русский / AC3 / 5.1 / 48 kHz / 448 kbps / MVO ( Амальгама )
Аудио №2: русский / AC3 / 5.1 / 48 kHz / 448 kbps / MVO ( Кармен Видео )
Аудио №3: русский / AC3 / 2.0 / 48 kHz / 192 kbps / MVO ( ВидеоСервис )
Аудио №4: русский / AC3 / 2.0 / 48 kHz / 192 kbps / MVO ( Петербург - 5 канал )
Аудио №5: русский / AC3 / 5.1 / 48 kHz / 448 kbps / DVO ( Гланц и Королева )
Аудио №6: русский / AC3 / 2.0 / 48 kHz / 192 kbps / DVO ( киностудия им. М.Горького )
Аудио №7: русский / AC3 / 5.1 / 48 kHz / 448 kbps / AVO ( Живов )
Аудио №8: русский / AC3 / 5.1 / 48 kHz / 448 kbps / AVO ( Гаврилов )
Аудио №9: французский / AC3 / 5.1 / 48 kHz / 640 kbps
Аудио №10: английский / AC3 / 5.1 / 48 kHz / 448 kbps
Навигация по главам: есть

******************************************************************
x264 [info]: frame I:1137 Avg QP:17.27 size:118659
x264 [info]: frame P:30206 Avg QP:18.54 size: 73601
x264 [info]: frame B:137222 Avg QP:20.71 size: 38323
******************************************************************
Формат : Matroska
Версия формата : Version 2
Размер файла : 10,3 Гбайт
Продолжительность : 1 ч. 57 м.
Общий поток : 12,6 Мбит/сек
Название фильма : = Никита / Nikita (1990) BDRip 720p BDRip by SC Kosmos =
Дата кодирования : UTC 2017-01-08 16:50:12
Программа кодирования : mkvmerge v5.8.0 ('No Sleep / Pillow') built on Sep 2 2012 15:37:04
Библиотека кодирования : libebml v1.2.3 + libmatroska v1.3.0
Attachment : Yes

Видео
Идентификатор : 1
Формат : AVC
Формат/Информация : Advanced Video Codec
Профиль формата : High@L4.1
Параметр CABAC формата : Да
Параметр ReFrames формата : 12 кадров
Идентификатор кодека : V_MPEG4/ISO/AVC
Продолжительность : 1 ч. 57 м.
Битрейт : 8430 Кбит/сек
Ширина : 1280 пикселей
Высота : 544 пикселя
Соотношение сторон : 2,35:1
Режим частоты кадров : Постоянный
Частота кадров : 24,000 кадра/сек
Цветовое пространство : YUV
Субдискретизация насыщенности : 4:2:0
Битовая глубина : 8 бит
Тип развёртки : Прогрессивная
Бит/(Пиксели*Кадры) : 0.504
Размер потока : 6,89 Гбайт (67%)
Заголовок : Никита / Nikita (1990) BDRip 720p BDRip by SC Kosmos
Библиотека кодирования : x264 core 148 r2705 3f5ed56
Настройки программы : cabac=1 / ref=12 / deblock=1:-1:-1 / analyse=0x3:0x113 / me=umh / subme=11 / psy=1 / psy_rd=1.00:0.05 / mixed_ref=1 / me_range=32 / chroma_me=1 / trellis=2 / 8x8dct=1 / cqm=0 / deadzone=21,11 / fast_pskip=0 / chroma_qp_offset=-3 / threads=12 / lookahead_threads=3 / sliced_threads=0 / nr=0 / decimate=1 / interlaced=0 / bluray_compat=0 / constrained_intra=0 / bframes=12 / b_pyramid=2 / b_adapt=2 / b_bias=0 / direct=3 / weightb=1 / open_gop=0 / weightp=2 / keyint=240 / keyint_min=24 / scenecut=40 / intra_refresh=0 / rc_lookahead=40 / rc=crf / mbtree=0 / crf=17.0 / qcomp=0.60 / qpmin=0 / qpmax=69 / qpstep=4 / vbv_maxrate=62500 / vbv_bufsize=78125 / crf_max=0.0 / nal_hrd=none / filler=0 / ip_ratio=1.40 / pb_ratio=1.30 / aq=1:0.70
Язык : French
Default : Да
Forced : Нет

Аудио #1
Идентификатор : 2
Формат : AC-3
Формат/Информация : Audio Coding 3
Расширение режима : CM (complete main)
Параметр Endianness формата : Big
Идентификатор кодека : A_AC3
Продолжительность : 1 ч. 57 м.
Вид битрейта : Постоянный
Битрейт : 448 Кбит/сек
Каналы : 6 каналов
Расположение каналов : Front: L C R, Side: L R, LFE
Частота : 48,0 КГц
Битовая глубина : 16 бит
Метод сжатия : С потерями
Размер потока : 375 Мбайт (4%)
Заголовок : MVO ( Амальгама )
Язык : Russian
Default : Да
Forced : Нет

Аудио #2
Идентификатор : 3
Формат : AC-3
Формат/Информация : Audio Coding 3
Расширение режима : CM (complete main)
Параметр Endianness формата : Big
Идентификатор кодека : A_AC3
Продолжительность : 1 ч. 57 м.
Вид битрейта : Постоянный
Битрейт : 448 Кбит/сек
Каналы : 6 каналов
Расположение каналов : Front: L C R, Side: L R, LFE
Частота : 48,0 КГц
Битовая глубина : 16 бит
Метод сжатия : С потерями
Размер потока : 375 Мбайт (4%)
Заголовок : MVO ( Кармен Видео )
Язык : Russian
Default : Нет
Forced : Нет

Аудио #3
Идентификатор : 4
Формат : AC-3
Формат/Информация : Audio Coding 3
Расширение режима : CM (complete main)
Параметр Endianness формата : Big
Идентификатор кодека : A_AC3
Продолжительность : 1 ч. 57 м.
Вид битрейта : Постоянный
Битрейт : 192 Кбит/сек
Каналы : 2 канала
Расположение каналов : Front: L R
Частота : 48,0 КГц
Битовая глубина : 16 бит
Метод сжатия : С потерями
Размер потока : 161 Мбайт (2%)
Заголовок : MVO ( ВидеоСервис )
Язык : Russian
Default : Нет
Forced : Нет

Аудио #4
Идентификатор : 5
Формат : AC-3
Формат/Информация : Audio Coding 3
Расширение режима : CM (complete main)
Параметр Endianness формата : Big
Идентификатор кодека : A_AC3
Продолжительность : 1 ч. 57 м.
Вид битрейта : Постоянный
Битрейт : 192 Кбит/сек
Каналы : 2 канала
Расположение каналов : Front: L R
Частота : 48,0 КГц
Битовая глубина : 16 бит
Метод сжатия : С потерями
Размер потока : 161 Мбайт (2%)
Заголовок : MVO ( Петербург - 5 канал )
Язык : Russian
Default : Нет
Forced : Нет

Аудио #5
Идентификатор : 6
Формат : AC-3
Формат/Информация : Audio Coding 3
Расширение режима : CM (complete main)
Параметр Endianness формата : Big
Идентификатор кодека : A_AC3
Продолжительность : 1 ч. 57 м.
Вид битрейта : Постоянный
Битрейт : 448 Кбит/сек
Каналы : 6 каналов
Расположение каналов : Front: L C R, Side: L R, LFE
Частота : 48,0 КГц
Битовая глубина : 16 бит
Метод сжатия : С потерями
Размер потока : 375 Мбайт (4%)
Заголовок : DVO ( Гланц и Королева )
Язык : Russian
Default : Нет
Forced : Нет

Аудио #6
Идентификатор : 7
Формат : AC-3
Формат/Информация : Audio Coding 3
Расширение режима : CM (complete main)
Параметр Endianness формата : Big
Идентификатор кодека : A_AC3
Продолжительность : 1 ч. 57 м.
Вид битрейта : Постоянный
Битрейт : 192 Кбит/сек
Каналы : 2 канала
Расположение каналов : Front: L R
Частота : 48,0 КГц
Битовая глубина : 16 бит
Метод сжатия : С потерями
Размер потока : 161 Мбайт (2%)
Заголовок : DVO ( киностудия им. М.Горького )
Язык : Russian
Default : Нет
Forced : Нет

Аудио #7
Идентификатор : 8
Формат : AC-3
Формат/Информация : Audio Coding 3
Расширение режима : CM (complete main)
Параметр Endianness формата : Big
Идентификатор кодека : A_AC3
Продолжительность : 1 ч. 57 м.
Вид битрейта : Постоянный
Битрейт : 448 Кбит/сек
Каналы : 6 каналов
Расположение каналов : Front: L C R, Side: L R, LFE
Частота : 48,0 КГц
Битовая глубина : 16 бит
Метод сжатия : С потерями
Размер потока : 375 Мбайт (4%)
Заголовок : AVO ( Живов )
Язык : Russian
Default : Нет
Forced : Нет

Аудио #8
Идентификатор : 9
Формат : AC-3
Формат/Информация : Audio Coding 3
Расширение режима : CM (complete main)
Параметр Endianness формата : Big
Идентификатор кодека : A_AC3
Продолжительность : 1 ч. 57 м.
Вид битрейта : Постоянный
Битрейт : 448 Кбит/сек
Каналы : 6 каналов
Расположение каналов : Front: L C R, Side: L R, LFE
Частота : 48,0 КГц
Битовая глубина : 16 бит
Метод сжатия : С потерями
Размер потока : 375 Мбайт (4%)
Заголовок : AVO ( Гаврилов )
Язык : Russian
Default : Нет
Forced : Нет

Аудио #9
Идентификатор : 10
Формат : AC-3
Формат/Информация : Audio Coding 3
Расширение режима : CM (complete main)
Параметр Endianness формата : Big
Идентификатор кодека : A_AC3
Продолжительность : 1 ч. 57 м.
Вид битрейта : Постоянный
Битрейт : 640 Кбит/сек
Каналы : 6 каналов
Расположение каналов : Front: L C R, Side: L R, LFE
Частота : 48,0 КГц
Битовая глубина : 16 бит
Метод сжатия : С потерями
Размер потока : 536 Мбайт (5%)
Язык : French
Default : Нет
Forced : Нет

Аудио #10
Идентификатор : 11
Формат : AC-3
Формат/Информация : Audio Coding 3
Расширение режима : CM (complete main)
Параметр Endianness формата : Big
Идентификатор кодека : A_AC3
Продолжительность : 1 ч. 57 м.
Вид битрейта : Постоянный
Битрейт : 448 Кбит/сек
Каналы : 6 каналов
Расположение каналов : Front: L C R, Side: L R, LFE
Частота : 48,0 КГц
Битовая глубина : 16 бит
Метод сжатия : С потерями
Размер потока : 375 Мбайт (4%)
Язык : English
Default : Нет
Forced : Нет

Текст #1
Идентификатор : 12
Формат : UTF-8
Идентификатор кодека : S_TEXT/UTF8
Идентификатор кодека/Информация : UTF-8 Plain Text
Язык : Russian
Default : Нет
Forced : Нет

Текст #2
Идентификатор : 13
Формат : UTF-8
Идентификатор кодека : S_TEXT/UTF8
Идентификатор кодека/Информация : UTF-8 Plain Text
Язык : Russian
Default : Нет
Forced : Нет

Текст #3
Идентификатор : 14
Формат : UTF-8
Идентификатор кодека : S_TEXT/UTF8
Идентификатор кодека/Информация : UTF-8 Plain Text
Язык : English
Default : Нет
Forced : Нет

Меню
00:00:00.000 : en:00:00:00.000
00:07:21.750 : en:00:07:21.750
00:17:54.708 : en:00:17:54.708
00:27:55.542 : en:00:27:55.542
00:39:57.208 : en:00:39:57.208
00:48:28.667 : en:00:48:28.667
00:59:04.042 : en:00:59:04.042
01:12:37.333 : en:01:12:37.333
01:22:16.500 : en:01:22:16.500
01:28:42.750 : en:01:28:42.750
01:38:02.083 : en:01:38:02.083
01:45:29.500 : en:01:45:29.500



Семпл


_________________
Проголосуй за трекер Открытый торрент трекер - RUS-MEDIA.ORG

Проголосуй Открытый торрент трекер - RUS-MEDIA.ORG


Вернуться к началу
 Профиль Отправить личное сообщение  
 
   Похожие торренты   Автор   Торрент   Размер 
В этой теме нет новых непрочитанных сообщений. Маленький Никита / Little Nikita [триллер, драма, 1988] BDRemux 1080р, Dvo

salma3

34 | 48

22.84 ГБ

В этой теме нет новых непрочитанных сообщений. Скорая помощь / The Ambulance [боевик, триллер, мелодрама, 1990] BDRip 720p, Mvo

salma3

55 | 28

5.56 ГБ

В этой теме нет новых непрочитанных сообщений. Скорая помощь / The Ambulance [боевик, триллер, мелодрама, 1990] BDRip 720p, Mvo

salma3

4 | 71

4.37 ГБ

В этой теме нет новых непрочитанных сообщений. Человек тьмы / Darkman [Фантастика, Боевик, Триллер, 1990] BDRip 720p, Mvo

salma3

17 | 6

6.38 ГБ

В этой теме нет новых непрочитанных сообщений. Вспомнить всё / Total Recall [Фантастика, боевик, триллер, 1990] BDRip 720p, Mvo

salma3

31 | 7

9.45 ГБ

В этой теме нет новых непрочитанных сообщений. Состояние исступления / State of Grace [боевик, триллер, драма, 1990] BDRip 720p, Dub

salma3

33 | 16

14.6 ГБ

В этой теме нет новых непрочитанных сообщений. Птичка на проводе / Bird on a Wire [боевик, триллер, комедия, 1990] BDRip 720p, Dub

salma3

10 | 37

12 ГБ


Начать новую тему Ответить на тему  [ 1 сообщение ] 




Для Мосгорсуда, Роскомнадзора и рекламодателей:: mosgorsud-torrent[собачка]yandex.ru
cron