Торрент файл
скачать торрент магнет ссылка Добавлен: 09 янв 2017, 12:28
Размер: 18.16 ГБ
Сидеров: 8
Личеров: 3
Статус: (salma3)
Автор

СообщениеДобавлено: 09 янв 2017, 12:28 

Не в сети
Супермодератор
Аватара пользователя
Дата регистрации:
15 фев 2012, 16:44
Возраст: 28
Спасибо: 7163 / 2147
Сообщения: 61885
Год выхода: 2002
Жанр: философская драма
Режиссер: Патрис Леконт / Patrice Leconte

В ролях: Жан Рошфор / Jean Rochefort, Джонни Халлидэй / Johnny Hallyday, Жан-Франсуа Стевенен / Jean-François Stévenin, Чарли Нелсон / Charlie Nelson, Паскаль Парментье / Pascal Parmentier, Изабель Пети-Жак / Isabelle Petit-Jacques

О фильме:
Человек выходит из поезда. Это Милан. У него потрепанный и изнуренный вид. Случайное знакомство на улице с неким Маскье, бывшим школьным учителем, может изменить их ближайшие планы. Абсолютно непохожие, они всегда мечтали только об этом: прожить не свою, а чужую жизнь. Милан, приехавший в провинциальный городок для ограбления банка, бредит домашним уютом. Благополучный Маскье жаждет бурных событий. На размышление и выбор им дано всего три дня…



Страна: Франция, Великобритания, Германия, Япония
Продолжительность: 01:30:18.816
Перевод: Профессиональный (многоголосый, закадровый) R5

Файл
Кодек: h.264
Качество: BDRemux Исходник BD25 Pathe
Видео: 1920x1080 (16:9), 24.000 fps, AVC, ~25.1 Mbps, 0.504 bits/pixel
Звук:
Русский DTS-HD Master Audio 5.1, 48 kHz, 1927 kbps, 16-bit (DTS Core: 5.1 / 48 kHz 1509 kbps 16-bit)*
Французский DTS-HD Master Audio 5.1, 48 kHz, 1927 kbps, 16-bit (DTS Core: 5.1 / 48 kHz 1509 kbps 16-bit)
*получена наложением выделенных голосов переводчиков на центральный канал французской дорожки
Субтитры:
Английские, PGS
Русские,SRT(UTF-8) на основе R5
Общее
Уникальный идентификатор : 175465981506573075295494409690265057507 (0x840184D01BB9579B8CDEE501B3DE78E3)
Полное имя : E:FILMSChelovek_s_poezda.2002.BDRemux.mkv
Формат : Matroska
Версия формата : Version 4 / Version 2
Размер файла : 18,2 Гбайт
Продолжительность : 1 ч. 30 м.
Режим общего битрейта : Переменный
Общий поток : 28,8 Мбит/сек
Дата кодирования : UTC 2017-01-02 12:44:21
Программа кодирования : mkvmerge v9.7.1 ('Pandemonium') 64bit
Библиотека кодирования : libebml v1.3.4 + libmatroska v1.4.5

Видео
Идентификатор : 1
Формат : AVC
Формат/Информация : Advanced Video Codec
Профиль формата : High@L4.1
Параметр CABAC формата : Да
Параметр ReFrames формата : 4 кадра
Идентификатор кодека : V_MPEG4/ISO/AVC
Продолжительность : 1 ч. 30 м.
Вид битрейта : Переменный
Битрейт : 24,9 Мбит/сек
Максимальный битрейт : 34,0 Мбит/сек
Ширина : 1920 пикселей
Высота : 1080 пикселей
Соотношение сторон : 16:9
Режим частоты кадров : Постоянный
Частота кадров : 24,000 кадра/сек
Стандарт вещания : NTSC
Цветовое пространство : YUV
Субдискретизация насыщенности : 4:2:0
Битовая глубина : 8 бит
Тип развёртки : Прогрессивная
Бит/(Пиксели*Кадры) : 0.499
Размер потока : 15,7 Гбайт (86%)
Default : Нет
Forced : Нет
Цветовой диапазон : Limited
Основные цвета : BT.709
Характеристики трансфера : BT.709
Коэффициенты матрицы : BT.709

Аудио #1
Идентификатор : 2
Формат : DTS
Формат/Информация : Digital Theater Systems
Профиль формата : MA / Core
Режим : 16
Параметр Endianness формата : Big
Идентификатор кодека : A_DTS
Продолжительность : 1 ч. 30 м.
Вид битрейта : Переменный / Постоянный
Битрейт : 1996 Кбит/сек / 1509 Кбит/сек
Каналы : 6 каналов
Расположение каналов : Front: L C R, Side: L R, LFE
Частота : 48,0 КГц
Частота кадров : 93,750 кадра/сек (512 spf)
Битовая глубина : 16 бит
Метод сжатия : Без потерь / Lossy
Размер потока : 1,26 Гбайт (7%)
Язык : Russian
Default : Да
Forced : Нет

Аудио #2
Идентификатор : 3
Формат : DTS
Формат/Информация : Digital Theater Systems
Профиль формата : MA / Core
Режим : 16
Параметр Endianness формата : Big
Идентификатор кодека : A_DTS
Продолжительность : 1 ч. 30 м.
Вид битрейта : Переменный / Постоянный
Битрейт : 1920 Кбит/сек / 1509 Кбит/сек
Каналы : 6 каналов
Расположение каналов : Front: L C R, Side: L R, LFE
Частота : 48,0 КГц
Частота кадров : 93,750 кадра/сек (512 spf)
Битовая глубина : 16 бит
Метод сжатия : Без потерь / Lossy
Размер потока : 1,22 Гбайт (7%)
Язык : French
Default : Нет
Forced : Нет

Текст #1
Идентификатор : 4
Формат : PGS
Режим смешивания : zlib
Идентификатор кодека : S_HDMV/PGS
Идентификатор кодека/Информация : Picture based subtitle format used on BDs/HD-DVDs
Продолжительность : 1 ч. 21 м.
Битрейт : 11,4 Кбит/сек
Count of elements : 1848
Размер потока : 6,65 Мбайт (0%)
Язык : English
Default : Нет
Forced : Нет

Текст #2
Идентификатор : 5
Формат : UTF-8
Идентификатор кодека : S_TEXT/UTF8
Идентификатор кодека/Информация : UTF-8 Plain Text
Продолжительность : 1 ч. 22 м.
Битрейт : 79 бит/сек
Count of elements : 587
Размер потока : 47,8 Кбайт (0%)
Язык : Russian
Default : Нет
Forced : Нет

Меню
00:00:00.000 : en:00:00:00.000
00:05:00.000 : en:00:05:00.000
00:10:00.000 : en:00:10:00.000
00:15:00.000 : en:00:15:00.000
00:20:00.000 : en:00:20:00.000
00:25:00.000 : en:00:25:00.000
00:30:00.000 : en:00:30:00.000
00:35:00.000 : en:00:35:00.000
00:40:00.000 : en:00:40:00.000
00:45:00.000 : en:00:45:00.000
00:50:00.000 : en:00:50:00.000
00:55:00.000 : en:00:55:00.000
01:00:00.000 : en:01:00:00.000
01:05:00.000 : en:01:05:00.000
01:10:00.000 : en:01:10:00.000
01:15:00.000 : en:01:15:00.000
01:20:00.000 : en:01:20:00.000
01:25:00.000 : en:01:25:00.000
01:30:00.000 : en:01:30:00.000


Релиз от: Temperest


_________________
Проголосуй за трекер Открытый торрент трекер - RUS-MEDIA.ORG

Проголосуй Открытый торрент трекер - RUS-MEDIA.ORG


Вернуться к началу
 Профиль Отправить личное сообщение  
 
   Похожие торренты   Автор   Торрент   Размер 
В этой теме нет новых непрочитанных сообщений. Человек с поезда / L'homme du train [философская драма, 2002] BDRip 720p, Mvo

salma3

65 | 11

4.82 ГБ

В этой теме нет новых непрочитанных сообщений. Сбрось маму с поезда / Throw Momma from the Train [комедия, криминал, триллер, 1987] BDRemux 1080p, Dub

salma3

1 | 8

22.86 ГБ

В этой теме нет новых непрочитанных сообщений. Сбрось маму с поезда / Throw Momma from the Train [комедия, криминал, 1987] BDRip-AVC, Dub

salma3

126 | 40

746.56 МБ

В этой теме нет новых непрочитанных сообщений. Человек-оркестр / L'Homme Orchestre [мюзикл, комедия, 1970] BDRip 720p, Dub+Dvo+Sub

salma3

77 | 20

3.1 ГБ

В этой теме нет новых непрочитанных сообщений. Любовь не по размеру / Un homme à la hauteur [Комедия, 2016] BDRemux 1080p, Dub [iTunes]

marya111

34 | 9

18.34 ГБ

В этой теме нет новых непрочитанных сообщений. Поезд-беглец / Runaway Train [боевик, триллер, драма, 1985] BDRemux 1080р, Dub

salma3

15 | 4

29.17 ГБ

В этой теме нет новых непрочитанных сообщений. Человек, который упал на землю / The Man Who Fell to Earth [фантастика, драма, 1976] BDRemux 1080p, Mvo

salma3

30 | 12

23.4 ГБ


Начать новую тему Ответить на тему  [ 1 сообщение ] 




Для Мосгорсуда, Роскомнадзора и рекламодателей:: mosgorsud-torrent[собачка]yandex.ru
cron