Торрент файл
скачать торрент магнет ссылка Добавлен: 09 янв 2017, 12:13
Размер: 3.36 ГБ
Сидеров: 16
Личеров: 5
Статус: (salma3)
Автор

СообщениеДобавлено: 09 янв 2017, 12:13 

Не в сети
Супермодератор
Аватара пользователя
Дата регистрации:
15 фев 2012, 16:44
Возраст: 29
Спасибо: 7377 / 2147
Сообщения: 75909
Год выхода: 2014
Жанр: комедия, семейный
Режиссер: Карстен Рудольф

В ролях: Герман Кноп, Пелле Фальк Крусбек, Оскар Фальк Фремминг Кристенсен, Мария Аскехаве, Аске Банг, Андерс Будде Кристенсен, Ибен Дорнер Эстергорд, Софи Лассен-Кальке, Дэвид Оуэ, Сёрен Пильмарк, Дар Салим

О фильме:
Шестилетнему мальчику Хуго очень повезло: он получил самый удивительный подарок в своей жизни на Рождество. Наш герой обнаружил в своем доме маленького эльфа Пикси. Теперь Хуго делает все возможное, чтобы его новый друг как можно дольше задержался у него в гостях. Однако Рождество проходит, и все остальные эльфы уже перенеслись на Северный Полюс. Теперь Пикси придется ждать целый год до наступления следующего Рождества, чтобы иметь возможность вернуться домой.



Производство: Дания / LumaFilm, Pixy Film
Продолжительность: 01:26:07
Перевод: профессиональный (многоголосый закадровый)[Игмар]

Файл
Качество: WEB-DL 1080p
Формат: MKV
Видео: MPEG-4 AVC, 1920x1078 (16:9), 25.000 fps, 5083 kbps
Аудио #1: русский, AC3 2.0, 48 kHz, 192 kbps
Аудио #2: датский, AC3 2.0, 48 kHz, 192 kbps
Субтитры: русские [djleninn], норвежские, шведские, финские вшитые отключаемые

Формат : Matroska
Версия формата : Version 4 / Version 2
Размер файла : 3,36 Гбайт
Продолжительность : 1 ч. 26 м.
Общий поток : 5578 Кбит/сек
Дата кодирования : UTC 2017-01-08 13:11:12
Программа кодирования : mkvmerge v7.9.0 ('Birds') 64bit
Библиотека кодирования : libebml v1.3.1 + libmatroska v1.4.2
DURATION : 01:26:06.960000000
NUMBER_OF_FRAMES : 129174
NUMBER_OF_BYTES : 3353033494
_STATISTICS_WRITING_APP : mkvmerge v8.1.0 ('Psychedelic Postcard') 64bit
_STATISTICS_WRITING_DATE_UTC : 2015-12-05 15:54:47
_STATISTICS_TAGS : BPS DURATION NUMBER_OF_FRAMES NUMBER_OF_BYTES

Видео
Идентификатор : 1
Формат : AVC
Формат/Информация : Advanced Video Codec
Профиль формата : High@L4
Параметр CABAC формата : Да
Параметр ReFrames формата : 4 кадра
Идентификатор кодека : V_MPEG4/ISO/AVC
Продолжительность : 1 ч. 26 м.
Битрейт : 5083 Кбит/сек
Ширина : 1920 пикселей
Высота : 1078 пикселей
Соотношение сторон : 16:9
Режим частоты кадров : Постоянный
Частота кадров : 25,000 кадров/сек
Цветовое пространство : YUV
Субдискретизация насыщенности : 4:2:0
Битовая глубина : 8 бит
Тип развёртки : Прогрессивная
Бит/(Пиксели*Кадры) : 0.098
Размер потока : 3,06 Гбайт (91%)
Язык : Danish
Default : Да
Forced : Нет
Цветовой диапазон : Limited
Основные цвета : BT.709
Характеристики трансфера : BT.709
Коэффициенты матрицы : BT.709

Аудио #1
Идентификатор : 2
Формат : AC-3
Формат/Информация : Audio Coding 3
Расширение режима : CM (complete main)
Параметр Endianness формата : Big
Идентификатор кодека : A_AC3
Продолжительность : 1 ч. 26 м.
Вид битрейта : Постоянный
Битрейт : 192 Кбит/сек
Каналы : 2 канала
Расположение каналов : Front: L R
Частота : 48,0 КГц
Метод сжатия : С потерями
Размер потока : 118 Мбайт (3%)
Заголовок : Игмар
Язык : Russian
Default : Да
Forced : Нет

Аудио #2
Идентификатор : 3
Формат : AC-3
Формат/Информация : Audio Coding 3
Расширение режима : CM (complete main)
Параметр Endianness формата : Big
Идентификатор кодека : A_AC3
Продолжительность : 1 ч. 26 м.
Вид битрейта : Постоянный
Битрейт : 192 Кбит/сек
Каналы : 2 канала
Расположение каналов : Front: L R
Частота : 48,0 КГц
Метод сжатия : С потерями
Размер потока : 118 Мбайт (3%)
Язык : Danish
Default : Нет
Forced : Нет

Текст #1
Идентификатор : 4
Формат : UTF-8
Идентификатор кодека : S_TEXT/UTF8
Идентификатор кодека/Информация : UTF-8 Plain Text
Заголовок : djleninn
Язык : Russian
Default : Да
Forced : Нет

Текст #2
Идентификатор : 5
Формат : UTF-8
Идентификатор кодека : S_TEXT/UTF8
Идентификатор кодека/Информация : UTF-8 Plain Text
Язык : Swedish
Default : Нет
Forced : Нет

Текст #3
Идентификатор : 6
Формат : UTF-8
Идентификатор кодека : S_TEXT/UTF8
Идентификатор кодека/Информация : UTF-8 Plain Text
Язык : Finnish
Default : Нет
Forced : Нет

Текст #4
Идентификатор : 7
Формат : UTF-8
Идентификатор кодека : S_TEXT/UTF8
Идентификатор кодека/Информация : UTF-8 Plain Text
Язык : Norwegian
Default : Нет
Forced : Нет


_________________
Проголосуй за трекер Открытый торрент трекер - RUS-MEDIA.ORG

Проголосуй Открытый торрент трекер - RUS-MEDIA.ORG


Вернуться к началу
 Профиль Отправить личное сообщение  
 
   Похожие торренты   Автор   Торрент   Размер 
В этой теме нет новых непрочитанных сообщений. Семейное рождество / Familien Jul [комедия, семейный, 2014] WEB-DLRip, Mvo

salma3

37 | 22

1.46 ГБ

В этой теме нет новых непрочитанных сообщений. Королевское Рождество / A Royal Christmas [Комедия, мелодрама, семейный, 2014] WEB-DLRip, Mvo [iTunes]

salma3

433 | 30

1.46 ГБ

В этой теме нет новых непрочитанных сообщений. Худшее Рождество Сердитой кошки / Grumpy Cat's Worst Christmas Ever [Комедия, мелодрама, семейный, 2014] HDTVRip., Avo

salma3

201 | 195

2.5 ГБ

В этой теме нет новых непрочитанных сообщений. Подарок на Рождество / Jingle All the Way [Комедия, приключения, семейный, 1996] BDRip 1080p, Mvo [Theatrical Cut]

salma3

0 | 0

9.34 ГБ

В этой теме нет новых непрочитанных сообщений. Подарок на Рождество / Jingle All the Way [Комедия, приключения, семейный, 1996] BDRemux 1080p, Mvo [Theatrical Cut]

salma3

0 | 0

27.53 ГБ

В этой теме нет новых непрочитанных сообщений. Подарок на Рождество / Jingle All the Way [комедия, приключения, семейный, 1996] BDRip-HEVC 1080p, Mvo [Theatrical Cut]

salma3

12 | 0

6.11 ГБ

В этой теме нет новых непрочитанных сообщений. Эрнест спасает Рождество / Ernest Saves Christmas [фэнтези, комедия, семейный, 1988] WEBRip 1080p, Avo

salma3

13 | 2

9.43 ГБ


Начать новую тему Ответить на тему  [ 1 сообщение ] 




Для Мосгорсуда, Роскомнадзора и рекламодателей:: mosgorsud-torrent[собачка]yandex.ru
cron