Торрент файл
скачать торрент магнет ссылка Добавлен: 03 янв 2017, 21:24
Размер: 24.13 ГБ
Сидеров: 9
Личеров: 14
Статус: (salma3)
Автор

СообщениеДобавлено: 03 янв 2017, 21:24 

Не в сети
Супермодератор
Аватара пользователя
Дата регистрации:
15 фев 2012, 16:44
Возраст: 28
Спасибо: 7163 / 2147
Сообщения: 61819
Год выхода: 2004
Жанр: драма
Режиссер: Грегг Араки / Gregg Araki

В ролях: Джозеф Гордон-Левитт / Joseph Gordon-Levitt (Neil), Брэди Корбет / Brady Corbet (Brian), Элизабет Шу / Elisabeth Shue (Mrs. McCormick), Бил Сэйдж / Bill Sage (Coach), Мишель Трахтенберг / Michelle Trachtenberg (Wendy), Чейз Эллисон / Chase Ellison (Neil, Age 8), Джордж Уэбстер / George Webster (Brian, Age 8), Джеффри Лайкон / Jeffrey Licon (Eric), Ричард Райль / Richard Riehle (Charlie), Билли Драго / Billy Drago

О фильме:
Описание 1:
По роману Скотта Хейма. Фильм исследует причины и последствия сексуального насилия, пережитого в детстве. "Необходимо понять, что глубочайшее - это кожа" (Жиль Делез) В ряде концепций постмодернизма кожа - окончательная граница телесности, ["Самое глубокое в нас - кожа, мы живём на поверхности кожи" (Поль Валери)], в связи с чем раны, ущерб кожному покрову и насилие в том числе чреваты шизофреническим "расщепом": человек перестаёт ощущать тело, как нечто своё. Совершенное тело Нила – не его собственность: он его продаёт. В определенные моменты тело Брайана ему не принадлежит. Оно живёт само по себе, и парень думает, что его похищали инопланетяне. ("Кармен Видео") "Араки снял фильм на запретную тему так артистично и естественно, словно и не подозревая о её скандальности. И ещё раз доказал, что в кино можно говорить обо всём - важно, как и зачем". (Валерий Кичин)
Описание 2:
Когда Брайану было восемь лет, он очнулся в погребе возле своего дома в Канзасе, у него шла кровь из носа, и он понятия не имел, как там оказался. После этого его жизнь стала другой — он боится темноты, мочится в постель, и ему снятся страшные сны.

Сейчас Брайану 18. Нилу тоже 18, и он жаждет любовных отношений, которые были у него с тренером малой лиги, когда ему было восемь лет. Когда молодые люди знакомятся, они начинают осознавать, что события, оказавшие на них самое сильное влияние в детстве, были не тем, чем казались…



Страна: США, Нидерланды
Студия: Antidote Films (I), Desperate Pictures, Fortissimo Films
Продолжительность: 01:45:07.218
Перевод: Профессиональный (многоголосый закадровый) R5 Другое Кино (Кармен Видео)
Авторский (одноголосый закадровый) Е. Гранкин

Файл
Кодек: h.264
Качество: BDRemux Исходник BD50 Strand Releasing
Видео: 1920x1080 (16:9), 23.976 fps, AVC, ~29.9 Mbps, 0.601 bits/pixel
Звук:
Русский, 48.0 KHz, AC3, 6 ch, 384 Kbps R5
Русский, 48.0 KHz, AC3, 6 ch, 384 Kbps Е. Гранкин
Английский, DTS-HD Master Audio 5.1, 48 kHz, 3986 kbps, 24-bit (DTS Core: 5.1 / 48 kHz / 1509 kbps / 24-bit)
Субтитры:
Английские, PGS
Русские, SRT (UTF-8) на основе R5 (синхронизированы по речи)
Общее
Уникальный идентификатор : 226990951052311902855295150279360291792 (0xAAC4DDF1FC55AE83A1AA5DDD725CA3D0)
Полное имя : E:FILMSZagadochnaya_Kozha.2004.BDRemux.mkv
Формат : Matroska
Версия формата : Version 4 / Version 2
Размер файла : 24,1 Гбайт
Продолжительность : 1 ч. 45 м.
Режим общего битрейта : Переменный
Общий поток : 32,9 Мбит/сек
Дата кодирования : UTC 2017-01-03 14:22:25
Программа кодирования : mkvmerge v9.7.1 ('Pandemonium') 64bit
Библиотека кодирования : libebml v1.3.4 + libmatroska v1.4.5

Видео
Идентификатор : 1
Формат : AVC
Формат/Информация : Advanced Video Codec
Профиль формата : High@L4.1
Параметр CABAC формата : Да
Параметр ReFrames формата : 4 кадра
Идентификатор кодека : V_MPEG4/ISO/AVC
Продолжительность : 1 ч. 45 м.
Вид битрейта : Переменный
Битрейт : 28,1 Мбит/сек
Максимальный битрейт : 35,0 Мбит/сек
Ширина : 1920 пикселей
Высота : 1080 пикселей
Соотношение сторон : 16:9
Режим частоты кадров : Постоянный
Частота кадров : 23,976 (24000/1001) кадра/сек
Стандарт вещания : NTSC
Цветовое пространство : YUV
Субдискретизация насыщенности : 4:2:0
Битовая глубина : 8 бит
Тип развёртки : Прогрессивная
Бит/(Пиксели*Кадры) : 0.565
Размер потока : 20,6 Гбайт (86%)
Default : Нет
Forced : Нет
Цветовой диапазон : Limited
Основные цвета : BT.709
Характеристики трансфера : BT.709
Коэффициенты матрицы : BT.709

Аудио #1
Идентификатор : 2
Формат : AC-3
Формат/Информация : Audio Coding 3
Расширение режима : CM (complete main)
Параметр Endianness формата : Big
Идентификатор кодека : A_AC3
Продолжительность : 1 ч. 45 м.
Вид битрейта : Постоянный
Битрейт : 384 Кбит/сек
Каналы : 6 каналов
Расположение каналов : Front: L C R, Side: L R, LFE
Частота : 48,0 КГц
Частота кадров : 31,250 кадров/сек (1536 spf)
Битовая глубина : 16 бит
Метод сжатия : С потерями
Размер потока : 289 Мбайт (1%)
Заголовок : R5
Язык : Russian
Default : Да
Forced : Нет

Аудио #2
Идентификатор : 3
Формат : AC-3
Формат/Информация : Audio Coding 3
Расширение режима : CM (complete main)
Параметр Endianness формата : Big
Идентификатор кодека : A_AC3
Продолжительность : 1 ч. 45 м.
Вид битрейта : Постоянный
Битрейт : 384 Кбит/сек
Каналы : 6 каналов
Расположение каналов : Front: L C R, Side: L R, LFE
Частота : 48,0 КГц
Частота кадров : 31,250 кадров/сек (1536 spf)
Битовая глубина : 16 бит
Метод сжатия : С потерями
Размер потока : 289 Мбайт (1%)
Заголовок : E. Grankin
Язык : Russian
Default : Нет
Forced : Нет

Аудио #3
Идентификатор : 4
Формат : DTS
Формат/Информация : Digital Theater Systems
Профиль формата : MA / Core
Режим : 16
Параметр Endianness формата : Big
Идентификатор кодека : A_DTS
Продолжительность : 1 ч. 45 м.
Вид битрейта : Переменный / Постоянный
Битрейт : 3986 Кбит/сек / 1509 Кбит/сек
Каналы : 6 каналов
Расположение каналов : Front: L C R, Side: L R, LFE
Частота : 48,0 КГц
Частота кадров : 93,750 кадра/сек (512 spf)
Битовая глубина : 24 бит
Метод сжатия : Без потерь / Lossy
Размер потока : 2,93 Гбайт (12%)
Язык : English
Default : Нет
Forced : Нет

Текст #1
Идентификатор : 5
Формат : PGS
Режим смешивания : zlib
Идентификатор кодека : S_HDMV/PGS
Идентификатор кодека/Информация : Picture based subtitle format used on BDs/HD-DVDs
Продолжительность : 1 ч. 41 м.
Битрейт : 7171 бит/сек
Count of elements : 3311
Размер потока : 5,22 Мбайт (0%)
Язык : English
Default : Нет
Forced : Нет

Текст #2
Идентификатор : 6
Формат : UTF-8
Идентификатор кодека : S_TEXT/UTF8
Идентификатор кодека/Информация : UTF-8 Plain Text
Продолжительность : 1 ч. 45 м.
Битрейт : 87 бит/сек
Count of elements : 827
Размер потока : 67,2 Кбайт (0%)
Язык : Russian
Default : Нет
Forced : Нет

Меню
00:00:00.000 : en:00:00:00.000
00:02:25.604 : en:00:02:25.604
00:06:01.903 : en:00:06:01.903
00:15:56.831 : en:00:15:56.831
00:20:32.982 : en:00:20:32.982
00:28:46.433 : en:00:28:46.433
00:43:06.375 : en:00:43:06.375
00:57:41.124 : en:00:57:41.124
01:12:05.530 : en:01:12:05.530
01:18:33.459 : en:01:18:33.459
01:25:48.935 : en:01:25:48.935
01:41:48.561 : en:01:41:48.561


Релиз от: Temperest


_________________
Проголосуй за трекер Открытый торрент трекер - RUS-MEDIA.ORG

Проголосуй Открытый торрент трекер - RUS-MEDIA.ORG


Вернуться к началу
 Профиль Отправить личное сообщение  
 
   Похожие торренты   Автор   Торрент   Размер 
В этой теме нет новых непрочитанных сообщений. Раскрашенная кожа / Painted Skin [боевые искусства, фэнтези, триллер, драма, боевик, 2008] HDRip, Avo

salma3

43 | 19

1.46 ГБ

В этой теме нет новых непрочитанных сообщений. Что скрывает кожа / Where the Skin Lies [ужасы, триллер, 2017] WEBDLRip, Mvo

salma3

67 | 25

1.37 ГБ

В этой теме нет новых непрочитанных сообщений. У моря / Beyond the Sea [драма, музыка, биография, мюзикл, 2004] 2004, BDRemux 1080р, Dub+Sub

salma3

25 | 18

19.38 ГБ

В этой теме нет новых непрочитанных сообщений. Атлантида / Cold Skin [Ужасы, фантастика, триллер, 2017] BDRemux 1080p, Dub [iTunes]

salma3

2 | 7

18 ГБ

В этой теме нет новых непрочитанных сообщений. Кожа / Pieles [Драма, 2017] WEB-DLRip, Avo

salma3

339 | 74

1.36 ГБ

В этой теме нет новых непрочитанных сообщений. Испанский английский / Spanglish [драма, мелодрама, комедия, 2004] BDRemux 1080p, Dub+Svo+Avo+Sub

salma3

21 | 17

22.43 ГБ

В этой теме нет новых непрочитанных сообщений. Бункер / Downfall / Der Untergang [Драма, военный, история, биография, 2004] BDRemux 1080p, Mvo

salma3

0 | 0

34.15 ГБ


Начать новую тему Ответить на тему  [ 1 сообщение ] 




Для Мосгорсуда, Роскомнадзора и рекламодателей:: mosgorsud-torrent[собачка]yandex.ru
cron