Торрент файл
скачать торрент магнет ссылка Добавлен: 03 янв 2017, 13:27
Размер: 15.47 ГБ
Сидеров: 68
Личеров: 40
Статус: (salma3)
Автор

СообщениеДобавлено: 03 янв 2017, 13:27 

Не в сети
Супермодератор
Аватара пользователя
Дата регистрации:
15 фев 2012, 16:44
Возраст: 28
Спасибо: 7290 / 2147
Сообщения: 70823
Год выхода: 2016
Жанр: ужасы
Режиссер: Трэвис Заривны

В ролях: Гейдж Голайтли, Мэттью Даддарио, Надин Крокер, Дастин Ингрэм, Сэмюэл Дэвис, Рэнди Шульман, Луиз Линтон, Элай Рот, Тереза Дечер, Лаура Кенни

О фильме: История о группе из пяти выпускников, которые арендуют удаленный домик в лесу и в результате становятся жертвами ужасного вируса…



Страна: США
Продолжительность: 01:38:26
Перевод: Любительский (одноголосый закадровый) Хихикающий доктор
Cубтитры: английские
Оригинальная аудиодорожка: английский

Файл
Кодек: MPEG4
Качество: BDRemux 1080p
Видео: 1920x1080 / 16:9 / 23.976fps / 19900Kbps / High@L4.1
Аудио 1: AC3 / 48.0 KHz / 2ch. / 192kbps / Rus / VO / Хихикающий доктор
Аудио 2: DTS-HD MA / 48.0 KHz / 6ch / 2419kbps / 24bit (DTS Core 48.0 KHz / 6ch / 1509kbps / 24bit) Eng

Общее
Уникальный идентификатор : 227982716346126920129197249294480152986 (0xAB83DFBFDD646BD0BE2232CD6813999A)
Полное имя : D:_TorrentHD1Cabin.Fever.2016.BDRemux.1080p_by_vedigo.mkv
Формат : Matroska
Версия формата : Version 4 / Version 2
Размер файла : 15,5 Гбайт
Продолжительность : 1 ч. 38 м.
Режим общего битрейта : Переменный
Общий поток : 22,5 Мбит/сек
Название фильма : Cabin.Fever.2016.BDRemux.1080p_by_vedigo
Дата кодирования : UTC 2016-12-10 06:45:34
Программа кодирования : mkvmerge v9.6.0 ('Slave To Your Mind') 64bit
Библиотека кодирования : libebml v1.3.4 + libmatroska v1.4.5

Видео
Идентификатор : 1
Формат : AVC
Формат/Информация : Advanced Video Codec
Профиль формата : High@L4.1
Параметр CABAC формата : Да
Параметр ReFrames формата : 4 кадра
Идентификатор кодека : V_MPEG4/ISO/AVC
Продолжительность : 1 ч. 38 м.
Вид битрейта : Переменный
Битрейт : 19,9 Мбит/сек
Максимальный битрейт : 34,0 Мбит/сек
Ширина : 1920 пикселей
Высота : 1080 пикселей
Соотношение сторон : 16:9
Режим частоты кадров : Постоянный
Частота кадров : 23,976 (24000/1001) кадра/сек
Цветовое пространство : YUV
Субдискретизация насыщенности : 4:2:0
Битовая глубина : 8 бит
Тип развёртки : Прогрессивная
Бит/(Пиксели*Кадры) : 0.400
Размер потока : 13,7 Гбайт (88%)
Заголовок : Cabin.Fever.2016.BDRemux.1080p_by_vedigo
Default : Да
Forced : Нет

Аудио #1
Идентификатор : 2
Формат : AC-3
Формат/Информация : Audio Coding 3
Расширение режима : CM (complete main)
Параметр Endianness формата : Big
Идентификатор кодека : A_AC3
Продолжительность : 1 ч. 38 м.
Вид битрейта : Постоянный
Битрейт : 192 Кбит/сек
Каналы : 2 канала
Расположение каналов : Front: L R
Частота : 48,0 КГц
Частота кадров : 31,250 кадров/сек (1536 spf)
Метод сжатия : С потерями
Размер потока : 135 Мбайт (1%)
Заголовок : VO @ Хихикающий доктор
Язык : Russian
Default : Да
Forced : Нет

Аудио #2
Идентификатор : 3
Формат : DTS
Формат/Информация : Digital Theater Systems
Профиль формата : MA / Core
Режим : 16
Параметр Endianness формата : Big
Идентификатор кодека : A_DTS
Продолжительность : 1 ч. 38 м.
Вид битрейта : Переменный / Постоянный
Битрейт : 2419 Кбит/сек / 1509 Кбит/сек
Каналы : 6 каналов
Расположение каналов : Front: L C R, Side: L R, LFE
Частота : 48,0 КГц
Частота кадров : 93,750 кадра/сек (512 spf)
Битовая глубина : 24 бит
Метод сжатия : Без потерь / Lossy
Размер потока : 1,66 Гбайт (11%)
Заголовок : Original
Язык : English
Default : Нет
Forced : Нет

Текст
Идентификатор : 4
Формат : UTF-8
Идентификатор кодека : S_TEXT/UTF8
Идентификатор кодека/Информация : UTF-8 Plain Text
Продолжительность : 1 ч. 34 м.
Битрейт : 52 бит/сек
Count of elements : 1465
Размер потока : 36,6 Кбайт (0%)
Заголовок : Subtitle eng
Язык : English
Default : Нет
Forced : Нет

Меню
00:00:00.000 : en:00:00:00.000
00:08:57.162 : en:00:08:57.162
00:17:30.174 : en:00:17:30.174
00:27:39.950 : en:00:27:39.950
00:35:34.799 : en:00:35:34.799
00:44:08.312 : en:00:44:08.312
00:50:33.948 : en:00:50:33.948
00:58:38.598 : en:00:58:38.598
01:06:51.716 : en:01:06:51.716
01:15:06.544 : en:01:15:06.544
01:24:03.163 : en:01:24:03.163
01:31:07.754 : en:01:31:07.754


_________________
Проголосуй за трекер Открытый торрент трекер - RUS-MEDIA.ORG

Проголосуй Открытый торрент трекер - RUS-MEDIA.ORG


Вернуться к началу
 Профиль Отправить личное сообщение  
 
   Похожие торренты   Автор   Торрент   Размер 
В этой теме нет новых непрочитанных сообщений. Лихорадка / Cabin Fever [ужасы, 2016] BDRip 720p, Avo

salma3

331 | 119

4.26 ГБ

В этой теме нет новых непрочитанных сообщений. Лихорадка / Cabin Fever (Трэвис Заривны) [2016, ужасы, комедия, WEBDLRip] avo

Nickolas3435

283 | 19

1.46 ГБ

В этой теме нет новых непрочитанных сообщений. Лихорадка / Cabin Fever [http://i49.fastpic.ru/big/2012/1206/89/8b6eb458c1957080d2f5bbd51428a189.png, 2002] HDRip-AVC, Dub

salma3

5 | 4

745.95 МБ

В этой теме нет новых непрочитанных сообщений. Последние каникулы 2 / Cabin Fever 2: Spring Fever [ужасы, триллер, комедия, 2009] HDRip, Mvo

salma3

126 | 20

701.67 МБ

В этой теме нет новых непрочитанных сообщений. Тюльпанная лихорадка / Tulip Fever [Драма, мелодрама, 2017] BDRemux 1080p, Dub [iTunes]

salma3

66 | 9

18.61 ГБ

В этой теме нет новых непрочитанных сообщений. Хижина в лесу / The Cabin in the Woods [ужасы, триллер, 2011] BDRemux 1080p, Dub [Лицензия]

salma3

38 | 21

21.76 ГБ

В этой теме нет новых непрочитанных сообщений. Тюльпанная лихорадка / Tulip Fever [Драма, мелодрама, 2017] BDRip 1080p, Dub [Лицензия]

salma3

154 | 24

8.54 ГБ


Начать новую тему Ответить на тему  [ 1 сообщение ] 




Для Мосгорсуда, Роскомнадзора и рекламодателей:: mosgorsud-torrent[собачка]yandex.ru
cron