Торрент файл
скачать торрент магнет ссылка Добавлен: 03 янв 2017, 01:14
Размер: 11.8 ГБ
Сидеров: 11
Личеров: 10
Статус: (salma3)
Автор

СообщениеДобавлено: 03 янв 2017, 01:14 

Не в сети
Супермодератор
Аватара пользователя
Дата регистрации:
15 фев 2012, 16:44
Возраст: 28
Спасибо: 7061 / 2147
Сообщения: 59181
Год выхода: 1992
Жанр: драма, комедия, семейный
Режиссер: Брайан Левант

В ролях: Чарльз Гродин, Бонни Хант, Дин Джонс, Николь Том, Кристофер Кастиль, Сара Роуз Карр, Оливер Платт, Стэнли Туччи, Дэвид Духовны, Патриция Хитон

О фильме:
Герой фильма - не великий композитор, а случайно названный его именем симпатяга-сенбернар. Попав еще щенком в приютившую его семью, пес быстро подружился с детьми и их матерью - только отец поглядывал на беспокойного домочадца косо.



Страна: США
Студия: Northern Lights Entertainment, Universal Pictures
Продолжительность: 01:27:01
Перевод: Профессиональный (дублированный) Мосфильм + Профессиональный (многоголосый, закадровый) Первый канал + Профессиональный (многоголосый, закадровый) НТВ + Профессиональный (многоголосый, закадровый) СТС + Профессиональный (двухголосый, закадровый) Премьер Видео + Авторский (одноголосый, закадровый) А.Гаврилов + Профессиональный (многоголосый, закадровый) ICTV + Профессиональный (многоголосый, закадровый) ТРК Украина

Релиз:

Файл
Формат: Matroska
Качество: BDRip 1080p
Видео: 1920x1040 at 23.976 fps, x264@L4.1, ~15900 kbps avg
Аудио#1: Russian: 48 kHz, AC3, 2/0 (L,R) ch, ~256 kbps avg |Дубляж, Мосфильм|
Аудио#2: Russian: 48 kHz, AC3, 2/0 (L,R) ch, ~192 kbps avg |Многоголосый закадровый, Первый канал|
Аудио#3: Russian: 48 kHz, AC3, 2/0 (L,R) ch, ~192 kbps avg |Многоголосый закадровый, НТВ|
Аудио#4: Russian: 48 kHz, AC3, 2/0 (L,R) ch, ~192 kbps avg |Многоголосый закадровый, СТС|
Аудио#5: Russian: 48 kHz, AC3, 2/0 (L,R) ch, ~192 kbps avg |Двухголосый закадровый, Премьер Видео|
Аудио#6: Russian: 48 kHz, DTS, 2/0 (L,R) ch, ~1509 kbps avg |Авторский, А.Гаврилов|
Аудио#7: Ukrainian: 48 kHz, AC3, 2/0 (L,R) ch, ~192 kbps avg |Многоголосый закадровый, ICTV|
Аудио#8: Ukrainian: 48 kHz, AC3, 2/0 (L,R) ch, ~192 kbps avg |Многоголосый закадровый, ТРК Украина|
Аудио#9: English: 48 kHz, FLAC, 2/0 (L,R) ch, ~1330 kbps avg
Субтитры: Russian, English, English (SDH)

***Сохранены и подписаны оригинальные главы как на Blu-ray.
***За переводы Первого Канала и СТС спасибо: xfiles, за Премьер Видео: Fikaloid, за украинские переводы: Hurtom.
***Видеоряд - ZiNC.

Автор сценария Джон Хьюз указан в титрах под псевдонимом Эдмон Дантес. Этот авторский псевдоним является данью памяти и знаком уважения к классическому роману Александра Дюма «Граф Монте-Кристо» и его главному герою.
Режиссёром фильма должен был стать Стив Рэш, который покинул проект вскоре после начала съёмок.
Тренировкой задействованной на съёмках фильма в качестве Бетховена собаки занималась вдова известного актёра Бастера Китона Элинор Китон.
[*]Американская ветеринарная ассоциация была настолько оскорблена, что главным отрицательным героем и организатором банды похитителей собак оказался ветеринар, что отправила гневное письмо протеста Джеку Валенти, руководителю Американской Ассоциации кино (MPAA).
Общее
Уникальный идентификатор : 244895226096040227520981689394007522202 (0xB83D1ADBE0FAC37EB9B2E4A88C963B9A)
Полное имя : Beethoven.1992.1080p.BluRay.7xRus.2xUkr.Eng.HDCLUB-ZiNC.mkv.mkv
Формат : Matroska
Версия формата : Version 4 / Version 2
Размер файла : 11,8 Гбайт
Продолжительность : 1 ч. 27 м.
Режим общего битрейта : Переменный
Общий поток : 19,4 Мбит/сек
Название фильма : Beethoven (1992) - Brian Levant
Дата кодирования : UTC 2017-01-02 14:53:50
Программа кодирования : mkvmerge v8.3.0 ('Over the Horizon') 64bit
Библиотека кодирования : libebml v1.3.1 + libmatroska v1.4.2
Attachment : Yes

Видео
Идентификатор : 1
Формат : AVC
Формат/Информация : Advanced Video Codec
Профиль формата : High@L4.1
Параметр CABAC формата : Да
Параметр ReFrames формата : 4 кадра
Идентификатор кодека : V_MPEG4/ISO/AVC
Продолжительность : 1 ч. 27 м.
Ширина : 1920 пикселей
Высота : 1040 пикселей
Соотношение сторон : 1,85:1
Режим частоты кадров : Постоянный
Частота кадров : 23,976 кадра/сек
Цветовое пространство : YUV
Субдискретизация насыщенности : 4:2:0
Битовая глубина : 8 бит
Тип развёртки : Прогрессивная
Заголовок : Beethoven.1992.1080p.BluRay.FLAC2.0.x264-ZiNC
Библиотека кодирования : x264 core 148 r2705+54 9f484c1 t_mod_Custom [8-bit@all X86_64]
Настройки программы : cabac=1 / ref=4 / deblock=1:-3:-3 / analyse=0x3:0x133 / me=umh / subme=11 / psy=1 / fade_compensate=0.00 / psy_rd=1.05:0.00 / mixed_ref=1 / me_range=32 / chroma_me=1 / trellis=2 / 8x8dct=1 / cqm=0 / deadzone=21,11 / fast_pskip=0 / chroma_qp_offset=-2 / threads=12 / lookahead_threads=2 / sliced_threads=0 / nr=0 / decimate=0 / interlaced=0 / bluray_compat=0 / constrained_intra=0 / fgo=0 / bframes=8 / b_pyramid=2 / b_adapt=2 / b_bias=0 / direct=3 / weightb=1 / open_gop=0 / weightp=2 / keyint=250 / keyint_min=23 / scenecut=40 / intra_refresh=0 / rc_lookahead=60 / rc=crf / mbtree=0 / crf=18.5000 / qcomp=0.60 / qpmin=0:0:0 / qpmax=69:69:69 / qpstep=4 / vbv_maxrate=62500 / vbv_bufsize=78125 / crf_max=0.0 / nal_hrd=none / filler=0 / ip_ratio=1.30 / pb_ratio=1.20 / aq=3:0.70 / aq-sensitivity=10.00 / aq-factor=1.00:1.00:1.00 / aq2=0 / aq3=0
Язык : English
Default : Да
Forced : Нет

Аудио #1
Идентификатор : 2
Формат : AC-3
Формат/Информация : Audio Coding 3
Расширение режима : CM (complete main)
Параметр Endianness формата : Big
Идентификатор кодека : A_AC3
Продолжительность : 1 ч. 27 м.
Вид битрейта : Постоянный
Битрейт : 256 Кбит/сек
Каналы : 2 канала
Расположение каналов : Front: L R
Частота : 48,0 КГц
Битовая глубина : 16 бит
Метод сжатия : С потерями
Размер потока : 159 Мбайт (1%)
Заголовок : Дубляж, Мосфильм
Язык : Russian
Default : Да
Forced : Нет

Аудио #2
Идентификатор : 3
Формат : AC-3
Формат/Информация : Audio Coding 3
Расширение режима : CM (complete main)
Параметр Endianness формата : Big
Идентификатор кодека : A_AC3
Продолжительность : 1 ч. 27 м.
Вид битрейта : Постоянный
Битрейт : 192 Кбит/сек
Каналы : 2 канала
Расположение каналов : Front: L R
Частота : 48,0 КГц
Битовая глубина : 16 бит
Метод сжатия : С потерями
Размер потока : 120 Мбайт (1%)
Заголовок : Многоголосый закадровый, Первый канал
Язык : Russian
Default : Нет
Forced : Нет

Аудио #3
Идентификатор : 4
Формат : AC-3
Формат/Информация : Audio Coding 3
Расширение режима : CM (complete main)
Параметр Endianness формата : Big
Идентификатор кодека : A_AC3
Продолжительность : 1 ч. 27 м.
Вид битрейта : Постоянный
Битрейт : 192 Кбит/сек
Каналы : 2 канала
Расположение каналов : Front: L R
Частота : 48,0 КГц
Битовая глубина : 16 бит
Метод сжатия : С потерями
Размер потока : 120 Мбайт (1%)
Заголовок : Многоголосый закадровый, НТВ
Язык : Russian
Default : Нет
Forced : Нет

Аудио #4
Идентификатор : 5
Формат : AC-3
Формат/Информация : Audio Coding 3
Расширение режима : CM (complete main)
Параметр Endianness формата : Big
Идентификатор кодека : A_AC3
Продолжительность : 1 ч. 27 м.
Вид битрейта : Постоянный
Битрейт : 192 Кбит/сек
Каналы : 2 канала
Расположение каналов : Front: L R
Частота : 48,0 КГц
Битовая глубина : 16 бит
Метод сжатия : С потерями
Размер потока : 120 Мбайт (1%)
Заголовок : Многоголосый закадровый, СТС
Язык : Russian
Default : Нет
Forced : Нет

Аудио #5
Идентификатор : 6
Формат : AC-3
Формат/Информация : Audio Coding 3
Расширение режима : CM (complete main)
Параметр Endianness формата : Big
Идентификатор кодека : A_AC3
Продолжительность : 1 ч. 27 м.
Вид битрейта : Постоянный
Битрейт : 192 Кбит/сек
Каналы : 2 канала
Расположение каналов : Front: L R
Частота : 48,0 КГц
Битовая глубина : 16 бит
Метод сжатия : С потерями
Размер потока : 120 Мбайт (1%)
Заголовок : Двухголосый закадровый, Премьер Видео
Язык : Russian
Default : Нет
Forced : Нет

Аудио #6
Идентификатор : 7
Формат : DTS
Формат/Информация : Digital Theater Systems
Режим : 16
Параметр Endianness формата : Big
Идентификатор кодека : A_DTS
Продолжительность : 1 ч. 27 м.
Вид битрейта : Постоянный
Битрейт : 1509 Кбит/сек
Каналы : 2 канала
Расположение каналов : Front: L R
Частота : 48,0 КГц
Битовая глубина : 24 бит
Метод сжатия : С потерями
Размер потока : 939 Мбайт (8%)
Заголовок : Одноголосый закадровый, А.Гаврилов
Язык : Russian
Default : Нет
Forced : Нет

Аудио #7
Идентификатор : 8
Формат : AC-3
Формат/Информация : Audio Coding 3
Расширение режима : CM (complete main)
Параметр Endianness формата : Big
Идентификатор кодека : A_AC3
Продолжительность : 1 ч. 27 м.
Вид битрейта : Постоянный
Битрейт : 192 Кбит/сек
Каналы : 2 канала
Расположение каналов : Front: L R
Частота : 48,0 КГц
Битовая глубина : 16 бит
Метод сжатия : С потерями
Размер потока : 120 Мбайт (1%)
Заголовок : Многоголосый закадровый, ICTV
Язык : Ukrainian
Default : Нет
Forced : Нет

Аудио #8
Идентификатор : 9
Формат : AC-3
Формат/Информация : Audio Coding 3
Расширение режима : CM (complete main)
Параметр Endianness формата : Big
Идентификатор кодека : A_AC3
Продолжительность : 1 ч. 27 м.
Вид битрейта : Постоянный
Битрейт : 192 Кбит/сек
Каналы : 2 канала
Расположение каналов : Front: L R
Частота : 48,0 КГц
Битовая глубина : 16 бит
Метод сжатия : С потерями
Размер потока : 120 Мбайт (1%)
Заголовок : Многоголосый закадровый, ТРК Украина
Язык : Ukrainian
Default : Нет
Forced : Нет

Аудио #9
Идентификатор : 10
Формат : FLAC
Формат/Информация : Free Lossless Audio Codec
Идентификатор кодека : A_FLAC
Продолжительность : 1 ч. 27 м.
Вид битрейта : Переменный
Каналы : 2 канала
Частота : 48,0 КГц
Битовая глубина : 16 бит
Библиотека кодирования : libFLAC 1.2.1 (UTC 2007-09-17)
Язык : English
Default : Нет
Forced : Нет

Текст #1
Идентификатор : 11
Формат : UTF-8
Идентификатор кодека : S_TEXT/UTF8
Идентификатор кодека/Информация : UTF-8 Plain Text
Язык : Russian
Default : Нет
Forced : Нет

Текст #2
Идентификатор : 12
Формат : UTF-8
Идентификатор кодека : S_TEXT/UTF8
Идентификатор кодека/Информация : UTF-8 Plain Text
Язык : English
Default : Нет
Forced : Нет

Текст #3
Идентификатор : 13
Формат : UTF-8
Идентификатор кодека : S_TEXT/UTF8
Идентификатор кодека/Информация : UTF-8 Plain Text
Заголовок : SDH
Язык : English
Default : Нет
Forced : Нет

Меню #1
00:00:00.000 : en:Main Titles: The Purloined Pup
00:08:36.599 : en:A New Family
00:15:18.835 : en:Name That Dog
00:16:50.801 : en:Roll Over, Beethoven
00:20:01.826 : en:Breakfast with Newtons
00:23:13.475 : en:A Day in the Life
00:27:02.538 : en:The Family Helper
00:32:58.602 : en:In Bed with Beethoven
00:37:58.026 : en:The Dognapping Doctor
00:42:20.455 : en:Beethoven the Babysitter
00:48:24.151 : en:The Dog Closes the Deal
00:57:14.973 : en:Dangerous
01:00:53.441 : en:Put Down
01:07:56.906 : en:The Newtons to the Rescue
01:13:56.766 : en:The Dognappers Done In
01:22:46.962 : en:Goodnight, Beethoven


_________________
Проголосуй за трекер Открытый торрент трекер - RUS-MEDIA.ORG

Проголосуй Открытый торрент трекер - RUS-MEDIA.ORG


Вернуться к началу
 Профиль Отправить личное сообщение  
 
   Похожие торренты   Автор   Торрент   Размер 
В этой теме нет новых непрочитанных сообщений. Бетховен / Beethoven [комедия, семейный, драма, 1992] BDRemux 1080p, Mvo

salma3

4 | 6

22.39 ГБ

В этой теме нет новых непрочитанных сообщений. Бетховен / Beethoven [драма, комедия, семейный, 1992] BDRip 720p, Dub

salma3

19 | 15

7.46 ГБ

В этой теме нет новых непрочитанных сообщений. Бетховен 2 / Beethoven's 2nd [мелодрама, комедия, семейный, 1993] BDRip 1080p, Dub

salma3

7 | 0

7.39 ГБ

В этой теме нет новых непрочитанных сообщений. Бетховен 3 / Beethoven's 3rd [комедия, семейный, 2000] WEB-DL 1080p, Mvo

salma3

3 | 1

9.28 ГБ

В этой теме нет новых непрочитанных сообщений. Бетховен 4 / Beethoven's 4th [комедия, семейный, 2001] WEB-DL 1080p, Mvo

salma3

1 | 1

7.52 ГБ

В этой теме нет новых непрочитанных сообщений. Божьи коровки / Ladybugs [комедия, семейный, спорт, 1992] BDRip 1080p, 2Dvo+Sub

salma3

19 | 4

10.09 ГБ

В этой теме нет новых непрочитанных сообщений. Их собственная лига / A League of Their Own [драма, комедия, спорт, 1992] BDRip 1080p, Dub

salma3

4 | 7

18.8 ГБ


Начать новую тему Ответить на тему  [ 1 сообщение ] 




Для Мосгорсуда, Роскомнадзора и рекламодателей:: mosgorsud-torrent[собачка]yandex.ru
cron