Торрент файл
скачать торрент магнет ссылка Добавлен: 02 янв 2017, 22:31
Размер: 22.39 ГБ
Сидеров: 4
Личеров: 6
Статус: (salma3)
Автор

СообщениеДобавлено: 02 янв 2017, 22:31 

Не в сети
Супермодератор
Аватара пользователя
Дата регистрации:
15 фев 2012, 16:44
Возраст: 29
Спасибо: 7379 / 2147
Сообщения: 76148
Жанр: комедия, семейный, драма
Год выпуска: 1992
Режиссер: Брайан Левант / Brian Levant
В ролях: Чарльз Гродин, Бонни Хант, Дин Джонс, Николь Том, Кристофер Кастиль, Сара Роуз Карр, Оливер Платт, Стэнли Туччи, Дэвид Духовны, Патриция Хитон и др.

Описание:
Герой фильма — не великий композитор, а случайно названный его именем симпатяга-сенбернар. Попав еще щенком в приютившую его семью, пес быстро подружился с детьми и их матерью — только отец поглядывал на беспокойного домочадца косо.



Страна: США
Студия: Universal Pictures, Northern Lights Entertainment
Продолжительность: 01:27:01
Перевод 1: Профессиональный (многоголосый закадровый) 1 канал
Перевод 2: Профессиональный (многоголосый закадровый) НТВ
Перевод 3: Профессиональный (многоголосый закадровый) СТС
Перевод 4: Профессиональный (многоголосый закадровый) Премьер-Видео
Перевод 5: Авторский (одноголосый закадровый) Андрей Гаврилов
Перевод 6: Профессиональный (полное дублирование) Мосфильм
Cубтитры: русские, английские
Оригинальная аудиодорожка: английский
Доп. информация: За предоставленный диск спасибо CCleaner790

Тип релиза: BDRemux 1080p
Контейнер: MKV
Видео: AVC / 1920x1080 / 16:9 / 23.976fps / 33600Kbps / High@L4.1
Аудио 1: AC3 / 48.0 KHz / 2ch. / 192kbps / Rus / MVO / 1 канал
Аудио 2: AC3 / 48.0 KHz / 2ch. / 192kbps / Rus / MVO / НТВ
Аудио 3: AC3 / 48.0 KHz / 2ch. / 192kbps / Rus / MVO / СТС
Аудио 4: AC3 / 48.0 KHz / 2ch. / 192kbps / Rus / MVO / Премьер-Видео
Аудио 5: AC3 / 48.0 KHz / 2ch. / 192kbps / Rus / AVO / А. Гаврилов
Аудио 6: AC3 / 48.0 KHz / 2ch. / 192kbps / Rus / Dub / Мосфильм
Аудио 7: DTS-HD MA / 48.0 KHz / 2ch / 2103kbps / 24bit (DTS Core 48.0 KHz / 2ch / 1509kbps / 24bit) Eng
Формат субтитров: softsub (SRT)

Общее
Уникальный идентификатор : 239563186897351151968693381118584207335 (0xB43A3107935A6119BD2D9BD48CACB7E7)
Полное имя : G:!!!_torrentBeethoven.1992.BDRemux.1080p_by_vedigo.mkv
Формат : Matroska
Версия формата : Version 4 / Version 2
Размер файла : 22,4 Гбайт
Продолжительность : 1 ч. 27 м.
Режим общего битрейта : Переменный
Общий поток : 36,8 Мбит/сек
Название фильма : Beethoven.1992.BDRemux.1080p_by_vedigo
Дата кодирования : UTC 2016-12-14 06:39:08
Программа кодирования : mkvmerge v9.6.0 ('Slave To Your Mind') 64bit
Библиотека кодирования : libebml v1.3.4 + libmatroska v1.4.5

Видео
Идентификатор : 1
Формат : AVC
Формат/Информация : Advanced Video Codec
Профиль формата : High@L4.1
Параметр CABAC формата : Да
Параметр ReFrames формата : 4 кадра
Идентификатор кодека : V_MPEG4/ISO/AVC
Продолжительность : 1 ч. 27 м.
Вид битрейта : Переменный
Битрейт : 33,6 Мбит/сек
Максимальный битрейт : 35,0 Мбит/сек
Ширина : 1920 пикселей
Высота : 1080 пикселей
Соотношение сторон : 16:9
Режим частоты кадров : Постоянный
Частота кадров : 23,976 (24000/1001) кадра/сек
Цветовое пространство : YUV
Субдискретизация насыщенности : 4:2:0
Битовая глубина : 8 бит
Тип развёртки : Прогрессивная
Бит/(Пиксели*Кадры) : 0.675
Размер потока : 20,4 Гбайт (91%)
Заголовок : Beethoven.1992.BDRemux.1080p_by_vedigo
Default : Да
Forced : Нет

Аудио #1
Идентификатор : 2
Формат : AC-3
Формат/Информация : Audio Coding 3
Расширение режима : CM (complete main)
Параметр Endianness формата : Big
Идентификатор кодека : A_AC3
Продолжительность : 1 ч. 27 м.
Вид битрейта : Постоянный
Битрейт : 192 Кбит/сек
Каналы : 2 канала
Расположение каналов : Front: L R
Частота : 48,0 КГц
Частота кадров : 31,250 кадров/сек (1536 spf)
Битовая глубина : 16 бит
Метод сжатия : С потерями
Размер потока : 120 Мбайт (1%)
Заголовок : MVO @ 1 канал
Язык : Russian
Default : Да
Forced : Нет

Аудио #2
Идентификатор : 3
Формат : AC-3
Формат/Информация : Audio Coding 3
Расширение режима : CM (complete main)
Параметр Endianness формата : Big
Идентификатор кодека : A_AC3
Продолжительность : 1 ч. 27 м.
Вид битрейта : Постоянный
Битрейт : 192 Кбит/сек
Каналы : 2 канала
Расположение каналов : Front: L R
Частота : 48,0 КГц
Частота кадров : 31,250 кадров/сек (1536 spf)
Битовая глубина : 16 бит
Метод сжатия : С потерями
Размер потока : 120 Мбайт (1%)
Заголовок : MVO @ НТВ
Язык : Russian
Default : Нет
Forced : Нет

Аудио #3
Идентификатор : 4
Формат : AC-3
Формат/Информация : Audio Coding 3
Расширение режима : CM (complete main)
Параметр Endianness формата : Big
Идентификатор кодека : A_AC3
Продолжительность : 1 ч. 27 м.
Вид битрейта : Постоянный
Битрейт : 192 Кбит/сек
Каналы : 2 канала
Расположение каналов : Front: L R
Частота : 48,0 КГц
Частота кадров : 31,250 кадров/сек (1536 spf)
Битовая глубина : 16 бит
Метод сжатия : С потерями
Размер потока : 120 Мбайт (1%)
Заголовок : MVO @ СТС
Язык : Russian
Default : Нет
Forced : Нет

Аудио #4
Идентификатор : 5
Формат : AC-3
Формат/Информация : Audio Coding 3
Расширение режима : CM (complete main)
Параметр Endianness формата : Big
Идентификатор кодека : A_AC3
Продолжительность : 1 ч. 27 м.
Вид битрейта : Постоянный
Битрейт : 192 Кбит/сек
Каналы : 2 канала
Расположение каналов : Front: L R
Частота : 48,0 КГц
Частота кадров : 31,250 кадров/сек (1536 spf)
Битовая глубина : 16 бит
Метод сжатия : С потерями
Размер потока : 120 Мбайт (1%)
Заголовок : MVO @ Премьер-Видео
Язык : Russian
Default : Нет
Forced : Нет

Аудио #5
Идентификатор : 6
Формат : AC-3
Формат/Информация : Audio Coding 3
Расширение режима : CM (complete main)
Параметр Endianness формата : Big
Идентификатор кодека : A_AC3
Продолжительность : 1 ч. 27 м.
Вид битрейта : Постоянный
Битрейт : 192 Кбит/сек
Каналы : 2 канала
Расположение каналов : Front: L R
Частота : 48,0 КГц
Частота кадров : 31,250 кадров/сек (1536 spf)
Битовая глубина : 16 бит
Метод сжатия : С потерями
Размер потока : 120 Мбайт (1%)
Заголовок : AVO @ А. Гаврилов
Язык : Russian
Default : Нет
Forced : Нет

Аудио #6
Идентификатор : 7
Формат : AC-3
Формат/Информация : Audio Coding 3
Расширение режима : CM (complete main)
Параметр Endianness формата : Big
Идентификатор кодека : A_AC3
Продолжительность : 1 ч. 27 м.
Вид битрейта : Постоянный
Битрейт : 192 Кбит/сек
Каналы : 2 канала
Расположение каналов : Front: L R
Частота : 48,0 КГц
Частота кадров : 31,250 кадров/сек (1536 spf)
Битовая глубина : 16 бит
Метод сжатия : С потерями
Размер потока : 120 Мбайт (1%)
Заголовок : Dub @ Мосфильм
Язык : Russian
Default : Нет
Forced : Нет

Аудио #7
Идентификатор : 8
Формат : DTS
Формат/Информация : Digital Theater Systems
Профиль формата : MA / Core
Режим : 16
Параметр Endianness формата : Big
Идентификатор кодека : A_DTS
Продолжительность : 1 ч. 27 м.
Вид битрейта : Переменный / Постоянный
Битрейт : 2103 Кбит/сек / 1509 Кбит/сек
Каналы : 2 канала
Расположение каналов : Front: L R
Частота : 48,0 КГц
Частота кадров : 93,750 кадра/сек (512 spf)
Битовая глубина : 24 бит
Метод сжатия : Без потерь / Lossy
Размер потока : 1,28 Гбайт (6%)
Заголовок : Original
Язык : English
Default : Нет
Forced : Нет

Текст #1
Идентификатор : 9
Формат : UTF-8
Идентификатор кодека : S_TEXT/UTF8
Идентификатор кодека/Информация : UTF-8 Plain Text
Продолжительность : 1 ч. 22 м.
Битрейт : 107 бит/сек
Count of elements : 924
Размер потока : 65,3 Кбайт (0%)
Заголовок : Subtitle rus
Язык : Russian
Default : Нет
Forced : Нет

Текст #2
Идентификатор : 10
Формат : UTF-8
Идентификатор кодека : S_TEXT/UTF8
Идентификатор кодека/Информация : UTF-8 Plain Text
Продолжительность : 1 ч. 22 м.
Битрейт : 58 бит/сек
Count of elements : 1238
Размер потока : 35,4 Кбайт (0%)
Заголовок : Subtitle eng
Язык : English
Default : Нет
Forced : Нет

Меню
00:00:00.000 : en:00:00:00.000
00:08:36.599 : en:00:08:36.599
00:15:18.835 : en:00:15:18.835
00:16:50.801 : en:00:16:50.801
00:20:01.826 : en:00:20:01.826
00:23:13.475 : en:00:23:13.475
00:27:02.538 : en:00:27:02.538
00:32:58.602 : en:00:32:58.602
00:37:58.026 : en:00:37:58.026
00:42:20.455 : en:00:42:20.455
00:48:24.151 : en:00:48:24.151
00:57:14.973 : en:00:57:14.973
01:00:53.441 : en:01:00:53.441
01:07:56.906 : en:01:07:56.906
01:13:56.766 : en:01:13:56.766
01:22:46.962 : en:01:22:46.962


_________________
Проголосуй за трекер Открытый торрент трекер - RUS-MEDIA.ORG

Проголосуй Открытый торрент трекер - RUS-MEDIA.ORG


Вернуться к началу
 Профиль Отправить личное сообщение  
 
   Похожие торренты   Автор   Торрент   Размер 
В этой теме нет новых непрочитанных сообщений. Бетховен / Beethoven [драма, комедия, семейный, 1992] BDRip 1080p, Dub

salma3

11 | 10

11.8 ГБ

В этой теме нет новых непрочитанных сообщений. Бетховен / Beethoven [драма, комедия, семейный, 1992] BDRip 720p, Dub

salma3

19 | 15

7.46 ГБ

В этой теме нет новых непрочитанных сообщений. Бетховен 3 / Beethoven's 3rd [комедия, семейный, 2000] WEB-DL 1080p, Mvo

salma3

3 | 1

9.28 ГБ

В этой теме нет новых непрочитанных сообщений. Бетховен 4 / Beethoven's 4th [комедия, семейный, 2001] WEB-DL 1080p, Mvo

salma3

1 | 1

7.52 ГБ

В этой теме нет новых непрочитанных сообщений. Бетховен 2 / Beethoven's 2nd [мелодрама, комедия, семейный, 1993] BDRip 1080p, Dub

salma3

7 | 0

7.39 ГБ

В этой теме нет новых непрочитанных сообщений. Белые люди не умеют прыгать / White Men Can't Jump [Драма, комедия, спорт, 1992] BDRemux 1080p, Mvo

salma3

0 | 1

36.59 ГБ

В этой теме нет новых непрочитанных сообщений. Домохозяйка / HouseSitter [мелодрама, комедия, 1992] BDRemux 1080p, Mvo

salma3

12 | 4

19.05 ГБ


Начать новую тему Ответить на тему  [ 1 сообщение ] 




Для Мосгорсуда, Роскомнадзора и рекламодателей:: mosgorsud-torrent[собачка]yandex.ru
cron