Торрент файл
скачать торрент магнет ссылка Добавлен: 30 дек 2016, 22:10
Размер: 7.1 ГБ
Сидеров: 26
Личеров: 17
Статус: (salma3)
Автор

СообщениеДобавлено: 30 дек 2016, 22:10 

Не в сети
Супермодератор
Аватара пользователя
Дата регистрации:
15 фев 2012, 16:44
Возраст: 28
Спасибо: 7165 / 2147
Сообщения: 62221
Год выхода: 2013
Жанр: триллер
Режиссер: Хо Джон

В ролях: Мун Джон-хи, Сон Хён-джу, Чон Ми-сон, Сон Ю-бин, Чон Мин-сон, Ким Су-ан, Чан Юн-щиль

Описание: Сон-су — успешный бизнесмен. Он живет в шикарной квартире со своей семьей, но у него есть секрет, касающийся его старшего брата, а также он страдает от боязни микробов. Однажды Сон-су узнает, что его старший брат пропал.



Страна: Южная Корея
Продолжительность: 01:47:26
Перевод: Любительский (двухголосый закадровый) den904, DeadSno / Перевод: Skyworker
Cубтитры: английские
Оригинальная аудиодорожка: корейский

Файл
Кодек: x264
Качество: BDRip 720p (рип от BodoiCuHo@TayTO)
Видео: 1280x544 (2,35:1) at 23,976 fps, ~7994 Кbps, 0.479 bpp
Аудио 1: AC3; 640 Kbps; CBR; 6 ch; 48 khz | DVO - den904, DeadSno |
Аудио 2: AC3; 640 Kbps; CBR; 6 ch; 48 khz | Корейский |

Общее
Уникальный идентификатор : 180056283046690466030971187640804134624 (0x87759426F586C077A0843C12C3594EE0)
Полное имя : Прятки.2013.DVO.720p.BluRay.x264-TayTO.mkv
Формат : Matroska
Версия формата : Version 4 / Version 2
Размер файла : 7,10 Гбайт
Продолжительность : 1 ч. 47 м.
Общий поток : 9462 Кбит/сек
Название фильма : Hide and Seek [720p] [2013] DVO
Дата кодирования : UTC 2014-01-20 13:17:46
Программа кодирования : mkvmerge v6.7.0 ('Back to the Ground') 32bit built on Jan 8 2014 15:03:17
Библиотека кодирования : libebml v1.3.0 + libmatroska v1.4.1

Видео
Идентификатор : 1
Формат : AVC
Формат/Информация : Advanced Video Codec
Профиль формата : High@L4.1
Параметр CABAC формата : Да
Параметр ReFrames формата : 12 кадров
Идентификатор кодека : V_MPEG4/ISO/AVC
Продолжительность : 1 ч. 47 м.
Битрейт : 7994 Кбит/сек
Ширина : 1280 пикселей
Высота : 544 пикселя
Соотношение сторон : 2,35:1
Режим частоты кадров : Постоянный
Частота кадров : 23,976 кадра/сек
Цветовое пространство : YUV
Субдискретизация насыщенности : 4:2:0
Битовая глубина : 8 бит
Тип развёртки : Прогрессивная
Бит/(Пиксели*Кадры) : 0.479
Размер потока : 6,00 Гбайт (84%)
Заголовок : profile.php?mode=viewprofile&u=22488948
Библиотека кодирования : x264 core 140 r2377 1ca7bb9
Настройки программы : cabac=1 / ref=12 / deblock=1:-3:-3 / analyse=0x3:0x133 / me=tesa / subme=11 / psy=1 / psy_rd=1.00:0.00 / mixed_ref=1 / me_range=16 / chroma_me=1 / trellis=2 / 8x8dct=1 / cqm=0 / deadzone=21,11 / fast_pskip=0 / chroma_qp_offset=-2 / threads=12 / lookahead_threads=2 / sliced_threads=0 / nr=0 / decimate=1 / interlaced=0 / bluray_compat=0 / constrained_intra=0 / bframes=7 / b_pyramid=2 / b_adapt=2 / b_bias=0 / direct=3 / weightb=1 / open_gop=0 / weightp=2 / keyint=250 / keyint_min=23 / scenecut=40 / intra_refresh=0 / rc=crf / mbtree=0 / crf=15.8 / qcomp=0.70 / qpmin=0 / qpmax=69 / qpstep=4 / ip_ratio=1.40 / pb_ratio=1.30 / aq=1:0.90
Язык : English
Default : Да
Forced : Нет
Коэффициенты матрицы : BT.709

Аудио #1
Идентификатор : 2
Формат : AC-3
Формат/Информация : Audio Coding 3
Расширение режима : CM (complete main)
Параметр Endianness формата : Big
Идентификатор кодека : A_AC3
Продолжительность : 1 ч. 47 м.
Вид битрейта : Постоянный
Битрейт : 640 Кбит/сек
Каналы : 6 каналов
Расположение каналов : Front: L C R, Side: L R, LFE
Частота : 48,0 КГц
Битовая глубина : 16 бит
Метод сжатия : С потерями
Размер потока : 492 Мбайт (7%)
Заголовок : DVO [den904, DeadSno]
Язык : Russian
Default : Да
Forced : Нет

Аудио #2
Идентификатор : 3
Формат : AC-3
Формат/Информация : Audio Coding 3
Расширение режима : CM (complete main)
Параметр Endianness формата : Big
Идентификатор кодека : A_AC3
Продолжительность : 1 ч. 47 м.
Вид битрейта : Постоянный
Битрейт : 640 Кбит/сек
Каналы : 6 каналов
Расположение каналов : Front: L C R, Side: L R, LFE
Частота : 48,0 КГц
Битовая глубина : 16 бит
Метод сжатия : С потерями
Размер потока : 492 Мбайт (7%)
Язык : Korean
Default : Нет
Forced : Нет

Текст
Идентификатор : 4
Формат : UTF-8
Идентификатор кодека : S_TEXT/UTF8
Идентификатор кодека/Информация : UTF-8 Plain Text
Язык : English
Default : Нет
Forced : Нет

Меню
00:00:00.000 : en:00:00:00.000
00:09:40.330 : en:00:09:40.330
00:27:18.720 : en:00:27:18.720
00:35:07.397 : en:00:35:07.397
00:49:06.777 : en:00:49:06.777
01:01:12.878 : en:01:01:12.878
01:17:31.063 : en:01:17:31.063
01:40:59.971 : en:01:40:59.971


_________________
Проголосуй за трекер Открытый торрент трекер - RUS-MEDIA.ORG

Проголосуй Открытый торрент трекер - RUS-MEDIA.ORG


Вернуться к началу
 Профиль Отправить личное сообщение  
 
   Похожие торренты   Автор   Торрент   Размер 
В этой теме нет новых непрочитанных сообщений. Игра в прятки / Hide and Go Shriek [ужасы, триллер, 1988] BDRip, Mvo

salma3

13 | 6

1.45 ГБ

В этой теме нет новых непрочитанных сообщений. Игра в прятки / Hide and Go Shriek [ужасы, триллер, 1988] BDRip 1080p, Mvo

salma3

104 | 57

7.34 ГБ

В этой теме нет новых непрочитанных сообщений. Игра в прятки / Hide and Seek [Ужасы, триллер, детектив, 2005] BDRip 1080p, Dub

salma3

21 | 115

11.25 ГБ

В этой теме нет новых непрочитанных сообщений. Игра в прятки / Hide and Seek [ужасы, триллер, детектив, 2005] HDTVRip, Dub

salma3

23 | 7

1.46 ГБ

В этой теме нет новых непрочитанных сообщений. Тепловой удар / Heatstroke (Эвелин Пурселл) [триллер, 2013] BDRip 720p, Mvo+Sub

Dracon

93 | 14

4.63 ГБ

В этой теме нет новых непрочитанных сообщений. Теорема Зеро / The Zero Theorem [фантастика, триллер, драма, комедия, 2013] BDRip 720p, Dub

salma3

24 | 14

6.69 ГБ

В этой теме нет новых непрочитанных сообщений. Безумные / The demented (Кристофер Рузвельт) [ужасы, триллер, драма, 2013] BDRip 720p, Mvo

Dracon

24 | 2

4.79 ГБ


Начать новую тему Ответить на тему  [ 1 сообщение ] 




Для Мосгорсуда, Роскомнадзора и рекламодателей:: mosgorsud-torrent[собачка]yandex.ru
cron