Торрент файл
скачать торрент магнет ссылка Добавлен: 29 дек 2016, 13:08
Размер: 7.12 ГБ
Сидеров: 101
Личеров: 36
Статус: (salma3)
Автор

СообщениеДобавлено: 29 дек 2016, 13:08 

В сети
Супермодератор
Аватара пользователя
Дата регистрации:
15 фев 2012, 16:44
Возраст: 29
Спасибо: 7328 / 2147
Сообщения: 73698
Год выхода: 2000
Страна: США
Студия: Artisan Entertainment, Haxan Films
Продолжительность: 01:30:12
Жанр: ужасы, фэнтези, триллер, детектив, приключения

Режиссер: Джо Берлингер
В ролях: Ким Директор, Джеффри Донован, Эрика Лирсен, Тристайн Скайлер, Стивен Баркер Тернер, Курт Лодер, Чак Скарборо, Брюс Рид, Линда Миллард, Дэб Бургойн, ...

Перевод: Профессиональный (дублированный) МОСФИЛЬМ-мастер

О фильме: Джефф Патерсон никогда не был пай-мальчиком. Он всегда был плохим парнем, и его воображение неизменно занимала ведьма из Блэр и легенда, связанная с ней. Джефф организует развлекательный тур «Охота за ведьмой из Блэр». Он проводит экскурсии по знаменитому зловещему лесу и в печально известный дом Растина Парра, совершившего семь убийств по приказанию ведьмы из Блэр.
Четверо студентов колледжа отправляются в этот тур и проводят ночь в доме Растина Парра. Наутро они обнаруживают, что не спали, но ни один из них не может вспомнить, что произошло за прошедшие пять часов. Обнаружив странные знаки на своих телах, студенты всё больше убеждаются в том, что стали участниками не развлекательного туристического аттракциона, а были вовлечены в нечто более ужасное.
А когда эти студенты вернутся в свой родной город, кто-то или что-то страшное последует за ними…



Кодек: x264
Качество: WEBRip 1080p
Видео: 1920x1080, 10200 kbps, 29,970 fps
Аудио #1: AC-3, 6 ch, 448 kbps (Rus) - Dub МОСФИЛЬМ-мастер
Аудио #2: AC-3, 6 ch, 448 kbps (Eng)
Субтитры: русские, английские

Общее
Уникальный идентификатор : 241624789861219558291684132460706588715 (0xB5C73DE742982F5D9F8F7FE3F626E82B)
Полное имя : Ведьма из Блэр 2 Книга теней (Book of Shadows Blair Witch 2) 2000 WEBRip 1080p.mkv
Формат : Matroska
Версия формата : Version 2
Размер файла : 7,12 Гбайт
Продолжительность : 1 ч. 30 м.
Режим общего битрейта : Переменный
Общий поток : 11,3 Мбит/сек
Дата кодирования : UTC 2016-12-28 12:10:38
Программа кодирования : mkvmerge v4.0.0 ('The Stars were mine') сборка от Jun 6 2010 16:18:42
Библиотека кодирования : libebml v1.0.0 + libmatroska v1.0.0

Видео
Идентификатор : 1
Формат : AVC
Формат/Информация : Advanced Video Codec
Профиль формата : High@L4
Параметр CABAC формата : Да
Параметр ReFrames формата : 4 кадра
Идентификатор кодека : V_MPEG4/ISO/AVC
Продолжительность : 1 ч. 30 м.
Вид битрейта : Переменный
Битрейт : 10,2 Мбит/сек
Максимальный битрейт : 15,0 Мбит/сек
Ширина : 1920 пикселей
Высота : 1080 пикселей
Соотношение сторон : 16:9
Режим частоты кадров : Постоянный
Частота кадров : 29,970 (30000/1001) кадров/сек
Цветовое пространство : YUV
Субдискретизация насыщенности : 4:2:0
Битовая глубина : 8 бит
Тип развёртки : Прогрессивная
Бит/(Пиксели*Кадры) : 0.164
Размер потока : 6,42 Гбайт (90%)
Библиотека кодирования : x264 core 148 r2623 d5b2374
Настройки программы : cabac=1 / ref=4 / deblock=1:-1:-1 / analyse=0x3:0x133 / me=umh / subme=9 / psy=1 / psy_rd=1.00:0.15 / mixed_ref=1 / me_range=24 / chroma_me=1 / trellis=2 / 8x8dct=1 / cqm=0 / deadzone=21,11 / fast_pskip=1 / chroma_qp_offset=-3 / threads=34 / lookahead_threads=5 / sliced_threads=0 / nr=150 / decimate=1 / interlaced=0 / bluray_compat=0 / constrained_intra=0 / bframes=8 / b_pyramid=2 / b_adapt=2 / b_bias=0 / direct=3 / weightb=1 / open_gop=0 / weightp=2 / keyint=150 / keyint_min=76 / scenecut=0 / intra_refresh=0 / rc_lookahead=150 / rc=crf / mbtree=1 / crf=18.0 / qcomp=0.60 / qpmin=0 / qpmax=69 / qpstep=4 / vbv_maxrate=15000 / vbv_bufsize=31250 / crf_max=0.0 / nal_hrd=vbr / filler=0 / ip_ratio=1.40 / aq=3:1.00
Язык : English
Default : Нет
Forced : Нет
Цветовой диапазон : Limited
Основные цвета : BT.709
Характеристики трансфера : BT.709
Коэффициенты матрицы : BT.709

Аудио #1
Идентификатор : 2
Формат : AC-3
Формат/Информация : Audio Coding 3
Расширение режима : CM (complete main)
Параметр Endianness формата : Big
Идентификатор кодека : A_AC3
Продолжительность : 1 ч. 30 м.
Вид битрейта : Постоянный
Битрейт : 448 Кбит/сек
Каналы : 6 каналов
Расположение каналов : Front: L C R, Side: L R, LFE
Частота : 48,0 КГц
Частота кадров : 31,250 кадров/сек (1536 spf)
Метод сжатия : С потерями
Размер потока : 289 Мбайт (4%)
Заголовок : Dub МОСФИЛЬМ-мастер
Язык : Russian
Default : Нет
Forced : Нет

Аудио #2
Идентификатор : 3
Формат : AC-3
Формат/Информация : Audio Coding 3
Расширение режима : CM (complete main)
Параметр Endianness формата : Big
Идентификатор кодека : A_AC3
Продолжительность : 1 ч. 30 м.
Вид битрейта : Постоянный
Битрейт : 448 Кбит/сек
Каналы : 6 каналов
Расположение каналов : Front: L C R, Side: L R, LFE
Частота : 48,0 КГц
Частота кадров : 31,250 кадров/сек (1536 spf)
Метод сжатия : С потерями
Размер потока : 289 Мбайт (4%)
Язык : English
Default : Нет
Forced : Нет

Текст #1
Идентификатор : 4
Формат : UTF-8
Идентификатор кодека : S_TEXT/UTF8
Идентификатор кодека/Информация : UTF-8 Plain Text
Язык : Russian
Default : Нет
Forced : Нет

Текст #2
Идентификатор : 5
Формат : UTF-8
Идентификатор кодека : S_TEXT/UTF8
Идентификатор кодека/Информация : UTF-8 Plain Text
Заголовок : CC
Язык : English
Default : Нет
Forced : Нет



_________________
Проголосуй за трекер Открытый торрент трекер - RUS-MEDIA.ORG

Проголосуй Открытый торрент трекер - RUS-MEDIA.ORG


Вернуться к началу
 Профиль Отправить личное сообщение  
 
   Похожие торренты   Автор   Торрент   Размер 
В этой теме нет новых непрочитанных сообщений. Ведьма из Блэр: Новая глава / Blair Witch [Ужасы, триллер, 2016] BDRemux 1080p, Avo

salma3

17 | 5

26.92 ГБ

В этой теме нет новых непрочитанных сообщений. Ведьма из Блэр: Новая глава / Blair Witch [Ужасы, триллер, 2016] BDRip 1080p, Dub+Avo+Sub [Лицензия]

salma3

133 | 71

12.42 ГБ

В этой теме нет новых непрочитанных сообщений. Ведьма из Блэр: Новая глава / Blair Witch (Ужасы, триллер, 2016) BDRip 1080p от ExKinoRay | A

marya111

0 | 0

12.96 ГБ

В этой теме нет новых непрочитанных сообщений. Ведьма из Блэр: Курсовая с того света / The Blair Witch Project [ужасы, детектив, 1999] BDRip 720p, Mvo

salma3

108 | 20

3.43 ГБ

В этой теме нет новых непрочитанных сообщений. Ведьма из Блэр: Новая глава / Blair Witch ( Ужасы, триллер, 2016) BDRip от MegaPeer | A

marya111

2081 | 102

1.46 ГБ

В этой теме нет новых непрочитанных сообщений. Ведьма из Блэр: Новая глава / Blair Witch [Ужасы, триллер, 2016] BDRip-AVC, Dub+Sub [Лицензия]

salma3

24 | 14

2.68 ГБ

В этой теме нет новых непрочитанных сообщений. Ведьма из Блэр: Новая глава / Blair Witch (ужасы, триллер, 2016) BDRip-AVC от HELLYWOOD | iTunes

marya111

306 | 73

1.45 ГБ


Начать новую тему Ответить на тему  [ 1 сообщение ] 




Для Мосгорсуда, Роскомнадзора и рекламодателей:: mosgorsud-torrent[собачка]yandex.ru
cron