Торрент файл
скачать торрент магнет ссылка Добавлен: 28 дек 2016, 14:05
Размер: 6.95 ГБ
Сидеров: 332
Личеров: 187
Статус: (salma3)
Автор

СообщениеДобавлено: 28 дек 2016, 14:05 

Не в сети
Супермодератор
Аватара пользователя
Дата регистрации:
15 фев 2012, 16:44
Возраст: 28
Спасибо: 7163 / 2147
Сообщения: 61886
Год выхода: 2016
Жанр: Драма, криминал
Режиссер: Дэвид Маккензи

В ролях: Джефф Бриджес, Крис Пайн, Бен Фостер, Джил Бирмингем, Дейл Дикки, Уильям Стерчи, Бак Тейлор, Кристин Берг, Кит Мэривезер, Жакмо Буззел

О фильме:
Им нужно совсем немного. Каких-то пару тысяч долларов, чтоб выкупить закладную и переписать дом на детей. А значит, окрестным банкам не уйти от дерзких налетов двух отчаянных братьев. Старший - рассудителен, младший - горяч, но так или иначе, а на этом пути им придется столкнуться с рейнджером Гамильтоном! И хотя до пенсии ему пару недель, но если закон был нарушен, значит, нарушителям уже несдобровать. К тому же, в напарниках у Гамильтона - офицер-краснокожий...



Страна: США
Студия: Film 44, Odd Lot Entertainment, Sidney Kimmel Entertainment
Продолжительность: 01:42:15
Перевод(ы):
#1: Дублированный [Лицензия]
#2: Авторский | А. Матвеев

Файл
Качество: BDRip 720p
Видео: MPEG-4 AVC, 1280x528, 6940 Kbit/s, 23.976 fps
Звук:
Аудио #01: 48 kHz, AC3, 5.1, 640 Kbps | Дублированный |
Аудио #02: 48 kHz, AC3, 5.1, 640 Kbps | Авторский |
Аудио #03: 48 kHz, DTS, 5.1, 1510 kbps | Оригинал |
Субтитры: Русские, английские

Общее
Уникальный идентификатор : 242417853158686318993940374305633797544 (0xB65FFAF15A18106B8D1E1C678ED905A8)
Полное имя : F:VideoHell.or.High.Water.2016.BDRip.720p.ExKinoRay.mkv
Формат : Matroska
Версия формата : Version 4 / Version 2
Размер файла : 6,95 Гбайт
Продолжительность : 1 ч. 42 м.
Общий поток : 9732 Кбит/сек
Название фильма : Hell.or.High.Water.2016 ***селезень***
Дата кодирования : UTC 2016-12-28 01:29:06
Программа кодирования : mkvmerge v8.3.0 ('Over the Horizon') 64bit
Библиотека кодирования : libebml v1.3.1 + libmatroska v1.4.2

Видео
Идентификатор : 1
Формат : AVC
Формат/Информация : Advanced Video Codec
Профиль формата : High@L5.1
Параметр CABAC формата : Да
Параметр ReFrames формата : 12 кадров
Идентификатор кодека : V_MPEG4/ISO/AVC
Продолжительность : 1 ч. 42 м.
Битрейт : 6940 Кбит/сек
Ширина : 1280 пикселей
Высота : 528 пикселей
Соотношение сторон : 2,40:1
Режим частоты кадров : Постоянный
Частота кадров : 23,976 (24000/1001) кадра/сек
Цветовое пространство : YUV
Субдискретизация насыщенности : 4:2:0
Битовая глубина : 8 бит
Тип развёртки : Прогрессивная
Бит/(Пиксели*Кадры) : 0.428
Размер потока : 4,96 Гбайт (71%)
Заголовок : Hell.or.High.Water.2016 ***селезень***
Библиотека кодирования : x264 core 142 r2431+42 c69a006 tMod [8-bit@all X86_64]
Настройки программы : cabac=1 / ref=12 / deblock=1:-3:-3 / analyse=0x3:0x113 / me=umh / subme=11 / psy=1 / fade_compensate=0.00 / psy_rd=1.05:1.05 / mixed_ref=1 / me_range=48 / chroma_me=1 / trellis=2 / 8x8dct=1 / cqm=0 / deadzone=21,11 / fast_pskip=0 / chroma_qp_offset=-4 / threads=16 / lookahead_threads=2 / sliced_threads=0 / nr=0 / decimate=0 / interlaced=0 / bluray_compat=0 / constrained_intra=0 / fgo=0 / bframes=8 / b_pyramid=2 / b_adapt=2 / b_bias=0 / direct=3 / weightb=1 / open_gop=0 / weightp=2 / keyint=240 / keyint_min=23 / scenecut=40 / intra_refresh=0 / rc_lookahead=100 / rc=2pass / mbtree=0 / bitrate=6940 / ratetol=1.0 / qcomp=0.70 / qpmin=0:0:0 / qpmax=69:69:69 / qpstep=4 / cplxblur=20.0 / qblur=0.5 / vbv_maxrate=300000 / vbv_bufsize=300000 / nal_hrd=none / filler=0 / ip_ratio=1.30 / pb_ratio=1.20 / aq=2:0.80 / aq-sensitivity=10.00 / aq-factor=1.00:1.00:1.00 / aq2=0 / aq3=0
Язык : English
Default : Да
Forced : Нет
Цветовой диапазон : Limited
Основные цвета : BT.709
Характеристики трансфера : BT.709
Коэффициенты матрицы : BT.709

Аудио #1
Идентификатор : 2
Формат : AC-3
Формат/Информация : Audio Coding 3
Расширение режима : CM (complete main)
Параметр Endianness формата : Big
Идентификатор кодека : A_AC3
Продолжительность : 1 ч. 42 м.
Вид битрейта : Постоянный
Битрейт : 640 Кбит/сек
Каналы : 6 каналов
Расположение каналов : Front: L C R, Side: L R, LFE
Частота : 48,0 КГц
Частота кадров : 31,250 кадров/сек (1536 spf)
Битовая глубина : 16 бит
Метод сжатия : С потерями
Размер потока : 468 Мбайт (7%)
Заголовок : Dub [License]
Язык : Russian
Default : Да
Forced : Нет

Аудио #2
Идентификатор : 3
Формат : AC-3
Формат/Информация : Audio Coding 3
Расширение режима : CM (complete main)
Параметр Endianness формата : Big
Идентификатор кодека : A_AC3
Продолжительность : 1 ч. 42 м.
Вид битрейта : Постоянный
Битрейт : 640 Кбит/сек
Каналы : 6 каналов
Расположение каналов : Front: L C R, Side: L R, LFE
Частота : 48,0 КГц
Частота кадров : 31,250 кадров/сек (1536 spf)
Битовая глубина : 16 бит
Метод сжатия : С потерями
Размер потока : 468 Мбайт (7%)
Заголовок : AVO [Matveev]
Язык : Russian
Default : Нет
Forced : Нет

Аудио #3
Идентификатор : 4
Формат : DTS
Формат/Информация : Digital Theater Systems
Режим : 16
Параметр Endianness формата : Big
Идентификатор кодека : A_DTS
Продолжительность : 1 ч. 42 м.
Вид битрейта : Постоянный
Битрейт : 1509 Кбит/сек
Каналы : 6 каналов
Расположение каналов : Front: L C R, Side: L R, LFE
Частота : 48,0 КГц
Частота кадров : 93,750 кадра/сек (512 spf)
Битовая глубина : 24 бит
Метод сжатия : С потерями
Размер потока : 1,08 Гбайт (16%)
Заголовок : Original
Язык : English
Default : Нет
Forced : Нет

Текст #1
Идентификатор : 5
Формат : UTF-8
Идентификатор кодека : S_TEXT/UTF8
Идентификатор кодека/Информация : UTF-8 Plain Text
Продолжительность : 43 м. 22 с.
Битрейт : 2 бит/сек
Count of elements : 14
Размер потока : 938 байт (0%)
Заголовок : Forced [Matveev]
Язык : Russian
Default : Да
Forced : Нет

Текст #2
Идентификатор : 6
Формат : UTF-8
Идентификатор кодека : S_TEXT/UTF8
Идентификатор кодека/Информация : UTF-8 Plain Text
Продолжительность : 1 ч. 38 м.
Битрейт : 84 бит/сек
Count of elements : 805
Размер потока : 61,4 Кбайт (0%)
Заголовок : Full [Matveev]
Язык : Russian
Default : Нет
Forced : Нет

Текст #3
Идентификатор : 7
Формат : UTF-8
Идентификатор кодека : S_TEXT/UTF8
Идентификатор кодека/Информация : UTF-8 Plain Text
Продолжительность : 1 ч. 34 м.
Битрейт : 52 бит/сек
Count of elements : 1167
Размер потока : 36,7 Кбайт (0%)
Заголовок : Full
Язык : English
Default : Нет
Forced : Нет

Меню
00:00:00.000 : en:00:00:00.000
00:09:37.243 : en:00:09:37.243
00:13:50.455 : en:00:13:50.455
00:22:14.583 : en:00:22:14.583
00:28:40.385 : en:00:28:40.385
00:31:54.329 : en:00:31:54.329
00:40:49.614 : en:00:40:49.614
00:46:49.932 : en:00:46:49.932
00:55:45.092 : en:00:55:45.092
01:02:06.473 : en:01:02:06.473
01:09:52.897 : en:01:09:52.897
01:14:04.649 : en:01:14:04.649
01:20:56.226 : en:01:20:56.226
01:29:09.135 : en:01:29:09.135
01:35:03.865 : en:01:35:03.865
01:38:28.277 : en:01:38:28.277


Релиз от: Автор релиза:


_________________
Проголосуй за трекер Открытый торрент трекер - RUS-MEDIA.ORG

Проголосуй Открытый торрент трекер - RUS-MEDIA.ORG


Вернуться к началу
 Профиль Отправить личное сообщение  
 
   Похожие торренты   Автор   Торрент   Размер 
В этой теме нет новых непрочитанных сообщений. Любой ценой / Hell or High Water (драма, криминал, 2016) BDRip 720p от Scarabey | Лицензия

marya111

233 | 73

5.92 ГБ

В этой теме нет новых непрочитанных сообщений. Любой ценой / Hell or High Water ( драма, криминал, вестерн, 2016) BDRip 720p от HELLYWOOD | Лицензия, А

marya111

128 | 30

5.76 ГБ

В этой теме нет новых непрочитанных сообщений. Любой ценой / Hell or High Water [боевик, драма, криминал, вестерн, 2016] BDRip 720p, Dub [iPad] [Лицензия]

salma3

65 | 3

2.31 ГБ

В этой теме нет новых непрочитанных сообщений. Любой ценой / Hell or High Water [драма, криминал, 2016] BDRip-AVC, Dub [Лицензия]

salma3

296 | 78

1.46 ГБ

В этой теме нет новых непрочитанных сообщений. Любой ценой / Hell or High Water [драма, криминал, 2016] BDRip, Dub [Лицензия]

salma3

1092 | 292

1.46 ГБ

В этой теме нет новых непрочитанных сообщений. Любой ценой / Hell or High Water [Драма, криминал, 2016] BDRip 1080p, Dub [Лицензия]

salma3

300 | 121

11.18 ГБ

В этой теме нет новых непрочитанных сообщений. Любой ценой / Hell or High Water ( драма, криминал, вестерн, 2016) BDRip | D, A | Лицензия

marya111

102 | 7

2.06 ГБ


Начать новую тему Ответить на тему  [ 1 сообщение ] 




Для Мосгорсуда, Роскомнадзора и рекламодателей:: mosgorsud-torrent[собачка]yandex.ru
cron