Торрент файл
скачать торрент магнет ссылка Добавлен: 28 дек 2016, 13:40
Размер: 12.52 ГБ
Сидеров: 15
Личеров: 7
Статус: (salma3)
Автор

СообщениеДобавлено: 28 дек 2016, 13:40 

Не в сети
Супермодератор
Аватара пользователя
Дата регистрации:
15 фев 2012, 16:44
Возраст: 28
Спасибо: 6823 / 2147
Сообщения: 49017
Год выхода: 1973
Жанр: триллер, драма, криминал
Режиссер: Мартин Скорсезе

В ролях: Роберт Де Ниро, Харви Кейтель, Дэвид Провэл, Эми Робинсон, Ричард Романус, Чезаре Данова, Виктор Арго, Джордж Меммоли, Ленни Скалетта, Дженни Белл, Мюррей Мостон

О фильме:
Чарли, племянник мафиозного босса из нью-йоркского квартала под названием Маленькая Италия, хочет стать владельцем собственного ресторана. Для этого ему необходимо добиться расположения богатого дядюшки, соблюдать приличия, проявлять респектабельность, но главное — держаться подальше от шизанутого дружка Джонни Боя, взламывающего почтовые ящики и занимающего деньги у ростовщиков без всякого намерения их вернуть.



Страна: США / Warner Bros. Pictures, Taplin - Perry - Scorsese Productions
Продолжительность: 01:51:31
Перевод #1: Профессиональный (двухголосый закадровый)
Перевод #2: Профессиональный (многоголосый закадровый) ОРТ
Перевод #3: Профессиональный (двухголосый закадровый) Градов
Перевод #4: Авторский (одноголосый закадровый) Поздняков
CtrlHD

Файл
Формат: MKV
Видео: 1912x1080 at 24.000 fps, x264, 15000 kbps avg
Aудио#1: Russian: 48 kHz, AC3, 2/0 (L,R) ch, ~192.00 kbps avg |Двухголосый закадровый|
Aудио#2: Russian: 48 kHz, AC3, 2/0 (L,R) ch, ~192.00 kbps avg |Многоголосый закадровый, ОРТ|
Aудио#3: Russian: 48 kHz, AC3, 2/0 (L,R) ch, ~192.00 kbps avg |Двухголосый закадровый, Градов|
Aудио#4: Russian: 48 kHz, AC3, 2/0 (L,R) ch, ~192.00 kbps avg |Одноголосый закадровый, Поздняков|
Aудио#5: English: 48 kHz, Flack, 1.0 @ 292 kbps avg
Субтитры: Russian, English
• За звуковые дорожки спасибо Diablo
• За субтитры спасибо VoLGuRoN
Format : Matroska
File size : 12.5 GiB
Duration : 1h 51mn
Overall bit rate : 16.1 Mbps
Encoded date : UTC 2011-07-16 18:08:05
Writing application : mkvmerge v4.8.0 ('I Got The...') сборка от May 24 2011 03:12:58
Writing library : libebml v1.2.0 + libmatroska v1.1.0
Video
ID : 1
Format : AVC
Format/Info : Advanced Video Codec
Format profile : High@L4.1
Format settings, CABAC : Yes
Format settings, ReFrames : 4 frames
Codec ID : V_MPEG4/ISO/AVC
Duration : 1h 51mn
Nominal bit rate : 15.0 Mbps
Width : 1 912 pixels
Height : 1 080 pixels
Display aspect ratio : 16:9
Frame rate : 24.000 fps
Color space : YUV
Chroma subsampling : 4:2:0
Bit depth : 8 bits
Scan type : Progressive
Bits/(Pixel*Frame) : 0.303
Writing library : x264 core 115 r2008 4c552d8
Encoding settings : cabac=1 / ref=4 / deblock=1:-3:-3 / analyse=0x3:0x113 / me=umh / subme=10 / psy=1 / psy_rd=1.38:0.00 / mixed_ref=1 / me_range=16 / chroma_me=1 / trellis=2 / 8x8dct=1 / cqm=0 / deadzone=21,11 / fast_pskip=0 / chroma_qp_offset=1 / threads=3 / sliced_threads=0 / nr=0 / decimate=1 / interlaced=0 / bluray_compat=0 / constrained_intra=0 / bframes=6 / b_pyramid=0 / b_adapt=2 / b_bias=0 / direct=3 / weightb=1 / open_gop=0 / weightp=2 / keyint=250 / keyint_min=23 / scenecut=40 / intra_refresh=0 / rc_lookahead=40 / rc=2pass / mbtree=1 / bitrate=14999 / ratetol=1.0 / qcomp=0.60 / qpmin=10 / qpmax=51 / qpstep=4 / cplxblur=20.0 / qblur=0.5 / ip_ratio=1.40 / aq=1:0.80
Language : English
Audio #1
ID : 2
Format : AC-3
Format/Info : Audio Coding 3
Mode extension : CM (complete main)
Codec ID : A_AC3
Duration : 1h 51mn
Bit rate mode : Constant
Bit rate : 192 Kbps
Channel(s) : 2 channels
Channel positions : Front: L R
Sampling rate : 48.0 KHz
Bit depth : 16 bits
Compression mode : Lossy
Stream size : 153 MiB (1%)
Title : AC3 2.0 @ 192 kbps |DVO|
Language : Russian
Audio #2
ID : 3
Format : AC-3
Format/Info : Audio Coding 3
Mode extension : CM (complete main)
Codec ID : A_AC3
Duration : 1h 51mn
Bit rate mode : Constant
Bit rate : 192 Kbps
Channel(s) : 2 channels
Channel positions : Front: L R
Sampling rate : 48.0 KHz
Bit depth : 16 bits
Compression mode : Lossy
Stream size : 153 MiB (1%)
Title : AC3 2.0 @ 192 kbps |MVO|
Language : Russian
Audio #3
ID : 4
Format : AC-3
Format/Info : Audio Coding 3
Mode extension : CM (complete main)
Codec ID : A_AC3
Duration : 1h 51mn
Bit rate mode : Constant
Bit rate : 192 Kbps
Channel(s) : 2 channels
Channel positions : Front: L R
Sampling rate : 48.0 KHz
Bit depth : 16 bits
Compression mode : Lossy
Stream size : 153 MiB (1%)
Title : AC3 2.0 @ 192 kbps |DVO, Gradov|
Language : Russian
Audio #4
ID : 5
Format : AC-3
Format/Info : Audio Coding 3
Mode extension : CM (complete main)
Codec ID : A_AC3
Duration : 1h 51mn
Bit rate mode : Constant
Bit rate : 192 Kbps
Channel(s) : 2 channels
Channel positions : Front: L R
Sampling rate : 48.0 KHz
Bit depth : 16 bits
Compression mode : Lossy
Stream size : 153 MiB (1%)
Title : AC3 2.0 @ 192 kbps |AVO, Pozdnyakov|
Language : Russian
Audio #5
ID : 6
Format : FLAC
Format/Info : Free Lossless Audio Codec
Codec ID : A_FLAC
Duration : 1h 51mn
Bit rate mode : Variable
Channel(s) : 1 channel
Sampling rate : 48.0 KHz
Bit depth : 16 bits
Title : FLAC 1.0 @ 292 kbps |Original|
Writing library : libFLAC 1.2.1 (UTC 2007-09-17)
Language : English
Text #1
ID : 7
Format : UTF-8
Codec ID : S_TEXT/UTF8
Codec ID/Info : UTF-8 Plain Text
Language : Russian
Text #2
ID : 8
Format : UTF-8
Codec ID : S_TEXT/UTF8
Codec ID/Info : UTF-8 Plain Text
Language : English
Menu
00:00:00.000 : en:00:00:00.000
00:02:57.667 : en:00:02:57.667
00:11:36.125 : en:00:11:36.125
00:20:25.125 : en:00:20:25.125
00:26:51.875 : en:00:26:51.875
00:36:20.708 : en:00:36:20.708
00:48:18.375 : en:00:48:18.375
00:55:41.125 : en:00:55:41.125
01:00:08.542 : en:01:00:08.542
01:06:14.625 : en:01:06:14.625
01:11:34.000 : en:01:11:34.000
01:21:30.542 : en:01:21:30.542
01:27:24.208 : en:01:27:24.208
01:37:10.583 : en:01:37:10.583
01:43:04.708 : en:01:43:04.708
01:50:05.708 : en:01:50:05.708


_________________
Проголосуй за трекер Открытый торрент трекер - RUS-MEDIA.ORG

Проголосуй Открытый торрент трекер - RUS-MEDIA.ORG



реклама партнёра


Вернуться к началу
 Профиль Отправить личное сообщение  
 
   Похожие торренты   Автор   Торрент   Размер 
В этой теме нет новых непрочитанных сообщений. Дикие улицы / Savage Streets [боевик, криминал, 1984] BDRip 1080p, Avo

salma3

55 | 9

11.59 ГБ

В этой теме нет новых непрочитанных сообщений. Дикие улицы / Savage Streets [криминал, драма, 1984] BDRemux 1080p, Avo

salma3

5 | 3

18.88 ГБ

В этой теме нет новых непрочитанных сообщений. Дикие улицы / Savage Streets [боевик, криминал, драма, 1984] BDRip-AVC, Avo

salma3

24 | 6

2.73 ГБ

В этой теме нет новых непрочитанных сообщений. Дикие улицы / Savage Streets [боевик, криминал, драма, 1984] BDRip 720p, Avo

salma3

8 | 3

6.37 ГБ

В этой теме нет новых непрочитанных сообщений. Сотни улиц / 100 Streets / A Hundred Streets [Драма, 2016] BDRip 1080p, Mvo+Sub [iTunes]

salma3

108 | 48

10.79 ГБ

В этой теме нет новых непрочитанных сообщений. Ребята с улицы / Boyz N The Hood [драма, криминал, 1991] BDRip 1080p, Mvo+Avo

salma3

6 | 5

12.29 ГБ

В этой теме нет новых непрочитанных сообщений. Сотни улиц / 100 Streets / A Hundred Streets [Драма, 2016] BDRemux 1080p, Mvo+Sub [iTunes]

salma3

15 | 23

18.02 ГБ


Начать новую тему Ответить на тему  [ 1 сообщение ] 




Для Мосгорсуда, Роскомнадзора и рекламодателей:: mosgorsud-torrent[собачка]yandex.ru