Торрент файл
скачать торрент магнет ссылка Добавлен: 28 дек 2016, 13:29
Размер: 9.77 ГБ
Сидеров: 31
Личеров: 28
Статус: (salma3)
Автор

СообщениеДобавлено: 28 дек 2016, 13:29 

Не в сети
Супермодератор
Аватара пользователя
Дата регистрации:
15 фев 2012, 16:44
Возраст: 28
Спасибо: 7226 / 2147
Сообщения: 68191
Страна: США
Производство: Paramount Pictures
Год выпуска: 1962
Жанр: драма, военный
Продолжительность: 01:29:00
Режиссер: Дон Сигел
Авторы сценария: Роберт Пирош, Ричард Карр

В ролях: Стив МакКуин, Бобби Дэрин, Фесс Паркер, Гарри Гуардино, Джеймс Коберн, Боб Ньюхарт, Ник Эдамс, Стивен Ферри, Майк Келлин

Описание: Центральным персонажем драмы является крутой, задиристый солдат, проявивший храбрость в бою, качества лидера и уникальную способность к импровизации в ходе жуткой и кажущейся безнадежной операции по сдерживанию превосходящих сил противника. Его инициатива и сопротивление доводят сержанта до военного трибунала за превышение власти...



Перевод: Профессиональный (двухголосый) | НТВ+ + Авторский (одноголосый) | Юрий Сербин + Авторский (одноголосый) | Антон Карповский
Субтитры: английские

Качество: WEB-DL 720p
Формат: МКV
Видео кодек: AVC
Аудио кодек: АС3 | AAC
Видео: 1920x1080 (16:9), 23.976 fps, MPEG-4 AVC ~14.7 Mbps avg
Аудио №1: 48.0 kHz, AC3 Dolby Digital, 2/0 (L,R) ch, ~192 kbps | RUS / НТВ+
Аудио №2: 48.0 kHz, AC3 Dolby Digital, 2/0 (L,R) ch, ~384 kbps | RUS / Сербин
Аудио №3: 48.0 kHz, AC3 Dolby Digital, 2/0 (L,R) ch, ~192 kbps | RUS / Карповский
Аудио №4: 48.0 kHz, Advanced Audio Codec LC, 2/0 (L,R) ch, ~125 kbps | ENG
Формат субтитров: UTF-8 Plain Text
Дата премьеры (мир): 26 июня 1962
Релиз от:
Format : Matroska
Format version : Version 4 / Version 2
File size : 9.77 GiB
Duration : 1 h 29 min
Overall bit rate mode : Variable
Overall bit rate : 15.6 Mb/s
Encoded date : UTC 2016-12-18 08:23:56
Writing application : mkvmerge v9.5.0 ('Quiet Fire') 64bit
Writing library : libebml v1.3.4 + libmatroska v1.4.5
Video
ID : 1
Format : AVC
Format/Info : Advanced Video Codec
Format profile : High@L4
Format settings, CABAC : Yes
Format settings, ReFrames : 4 frames
Codec ID : V_MPEG4/ISO/AVC
Duration : 1 h 29 min
Bit rate mode : Variable
Bit rate : 14.7 Mb/s
Maximum bit rate : 15.0 Mb/s
Width : 1 920 pixels
Height : 1 080 pixels
Display aspect ratio : 16:9
Frame rate mode : Constant
Frame rate : 23.976 (24000/1001) FPS
Color space : YUV
Chroma subsampling : 4:2:0
Bit depth : 8 bits
Scan type : Progressive
Bits/(Pixel*Frame) : 0.295
Stream size : 9.21 GiB (94%)
Writing library : x264 core 148 r2623 d5b2374
Encoding settings : cabac=1 / ref=4 / deblock=1:-1:-1 / analyse=0x3:0x133 / me=umh / subme=9 / psy=1 / psy_rd=1.00:0.15 / mixed_ref=1 / me_range=24 / chroma_me=1 / trellis=2 / 8x8dct=1 / cqm=0 / deadzone=21,11 / fast_pskip=1 / chroma_qp_offset=-3 / threads=34 / lookahead_threads=5 / sliced_threads=0 / nr=150 / decimate=1 / interlaced=0 / bluray_compat=0 / constrained_intra=0 / bframes=8 / b_pyramid=2 / b_adapt=2 / b_bias=0 / direct=3 / weightb=1 / open_gop=0 / weightp=2 / keyint=120 / keyint_min=61 / scenecut=0 / intra_refresh=0 / rc_lookahead=120 / rc=crf / mbtree=1 / crf=18.0 / qcomp=0.60 / qpmin=0 / qpmax=69 / qpstep=4 / vbv_maxrate=15000 / vbv_bufsize=31250 / crf_max=0.0 / nal_hrd=vbr / filler=0 / ip_ratio=1.40 / aq=3:1.00
Language : English
Default : Yes
Forced : No
Color range : Limited
Color primaries : BT.709
Transfer characteristics : BT.709
Matrix coefficients : BT.709
Audio #1
ID : 2
Format : AC-3
Format/Info : Audio Coding 3
Mode extension : CM (complete main)
Format settings, Endianness : Big
Codec ID : A_AC3
Duration : 1 h 29 min
Bit rate mode : Constant
Bit rate : 192 kb/s
Channel(s) : 2 channels
Channel positions : Front: L R
Sampling rate : 48.0 kHz
Frame rate : 31.250 FPS (1536 spf)
Bit depth : 16 bits
Compression mode : Lossy
Stream size : 123 MiB (1%)
Title : DVD
Language : Russian
Default : Yes
Forced : No
Audio #2
ID : 3
Format : AC-3
Format/Info : Audio Coding 3
Mode extension : CM (complete main)
Format settings, Endianness : Big
Codec ID : A_AC3
Duration : 1 h 29 min
Bit rate mode : Constant
Bit rate : 384 kb/s
Channel(s) : 2 channels
Channel positions : Front: L R
Sampling rate : 48.0 kHz
Frame rate : 31.250 FPS (1536 spf)
Bit depth : 16 bits
Compression mode : Lossy
Stream size : 247 MiB (2%)
Title : Ю.Сербин
Language : Russian
Default : No
Forced : No
Audio #3
ID : 4
Format : AC-3
Format/Info : Audio Coding 3
Mode extension : CM (complete main)
Format settings, Endianness : Big
Codec ID : A_AC3
Duration : 1 h 29 min
Bit rate mode : Constant
Bit rate : 192 kb/s
Channel(s) : 2 channels
Channel positions : Front: L R
Sampling rate : 48.0 kHz
Frame rate : 31.250 FPS (1536 spf)
Bit depth : 16 bits
Compression mode : Lossy
Stream size : 123 MiB (1%)
Title : Карповский
Language : Russian
Default : No
Forced : No
Audio #4
ID : 5
Format : AAC
Format/Info : Advanced Audio Codec
Format profile : LC
Codec ID : A_AAC
Duration : 1 h 29 min
Bit rate : 125 kb/s
Channel(s) : 2 channels
Channel positions : Front: L R
Sampling rate : 48.0 kHz
Frame rate : 46.875 FPS (1024 spf)
Compression mode : Lossy
Stream size : 80.6 MiB (1%)
Language : English
Default : No
Forced : No
Text
ID : 6
Format : UTF-8
Codec ID : S_TEXT/UTF8
Codec ID/Info : UTF-8 Plain Text
Duration : 1 h 27 min
Bit rate : 36 b/s
Count of elements : 996
Stream size : 23.5 KiB (0%)
Language : English
Default : No
Forced : No


_________________
Проголосуй за трекер Открытый торрент трекер - RUS-MEDIA.ORG

Проголосуй Открытый торрент трекер - RUS-MEDIA.ORG


Вернуться к началу
 Профиль Отправить личное сообщение  
 
   Похожие торренты   Автор   Торрент   Размер 
В этой теме нет новых непрочитанных сообщений. Мифика: Задание для героев / Mythica: A Quest for Heroes [Фэнтези, 2015] BDRemux 1080p, Mvo

salma3

154 | 36

14.55 ГБ

В этой теме нет новых непрочитанных сообщений. Приветствие Джаггера / Кровь героев / The Salute Of The Jugger / The blood of heroes [фантастика, боевик, постапокалипсис, 1989] BDRip-HEVC 1080p, Mvo

salma3

15 | 4

3.56 ГБ

В этой теме нет новых непрочитанных сообщений. 28 панфиловцев / The 28 Panfilov heroes ( Ким Дружинин, Андрей Шальопа) [2016, Военный, драма , WEB-DL 1080p] [DD5.1]

Враг Нароода

70 | 50

7.18 ГБ

В этой теме нет новых непрочитанных сообщений. Билли Бад / Billy Budd [драма, приключения, военный, 1962] HDRip, Mvo

salma3

0 | 0

1.45 ГБ

В этой теме нет новых непрочитанных сообщений. Тарас Бульба / Taras Bulba [драма, военный, история, 1962] HDTVRip, Mvo

salma3

121 | 23

2.19 ГБ

В этой теме нет новых непрочитанных сообщений. Фальшивый предатель / The Counterfeit Traitor [триллер, драма, военный, 1962] DVDRip-AVC, Mvo

salma3

41 | 4

1.97 ГБ

В этой теме нет новых непрочитанных сообщений. Самый длинный день / The Longest Day [Военный, боевик, драма, история, 1962] BDRip-AVC, Mvo

salma3

0 | 1

1.45 ГБ


Начать новую тему Ответить на тему  [ 1 сообщение ] 




Для Мосгорсуда, Роскомнадзора и рекламодателей:: mosgorsud-torrent[собачка]yandex.ru
cron