Торрент файл
скачать торрент магнет ссылка Добавлен: 28 дек 2016, 13:20
Размер: 10.24 ГБ
Сидеров: 28
Личеров: 25
Статус: (salma3)
Автор

СообщениеДобавлено: 28 дек 2016, 13:20 

Не в сети
Супермодератор
Аватара пользователя
Дата регистрации:
15 фев 2012, 16:44
Возраст: 28
Спасибо: 6656 / 2146
Сообщения: 46014
Год выпуска: 2003
Страна: США, Великобритания
Жанр: мелодрама, комедия, драма
Продолжительность: 02:14:52
Перевод: Дублированный [Лицензия], одноголосый закадровый [Ю.Сербин]
Субтитры: Russian, English

В ролях: Кира Найтли, Хью Грант, Билл Найи, Колин Фёрт, Лора Линни, Лиам Нисон, Эмма Томпсон, Алан Рикман, Родриго Санторо, Билли Боб Торнтон
Режиссёр: Ричард Кёртис

Описание: Любовь незабываемая и недосягаемая, вызывающая сожаление и экстатическая, неожиданная и нежеланная, неудобная и необъяснимая, неизящная и неравная. Любовь поистине правит всеми вокруг. От премьер-министра, мгновенно влюбившегося в сотрудницу своего аппарата, — до писателя, сбежавшего на юг Франции, чтобы склеить свое разбитое сердце… От замужней женщины, подозревающей, что ее муж отдаляется от нее, — до женщины, только что вступившей в брак и почувствовавшей холодность лучшего друга своего мужа… От тинейджера, пытающегося завоевать внимание самой неприступной девочки в школе, — до овдовевшего отчима, пытающегося установить контакт с сыном, которого, как вдруг выясняется, он почти не знает… От страдающей из-за безнадежной любви юной американки, решившей не упустить своего шанса с сослуживцем, — до стареющего рок-певца, ставшего жертвой внезапно накатившего чувства… Любовь вносит хаос в жизнь каждого из них, но не случайно пути-дороги лондонцев сталкиваются в канун Рождества…

Качество: BDRip 1080p
Формат: MKV
Видео кодек: x265
Аудио кодек: DTS
Видео: 1920x816, 23,976 fps, HEVC, ~9355 kbps
Аудио: Rus, 48 kHz/24-bit, DTS 5.1, ~756 kbps | Дубляж
Аудио: Rus, 48 kHz/24-bit, DTS 5.1, ~756 kbps | Ю.Сербин
Аудио: Eng, 48 kHz/24-bit, DTS 5.1, ~756 kbps | Оригинал
Навигация по главам: Присутствует

Автор рипа: Alex_A



- H.265/HEVC (High Efficiency Video Coding) - это новый стандарт кодирования видео.
- Стандарт H.265/HEVC является логическим продолжением стандарта H.264/AVC (Advanced Video Coding), и характеризуется более эффективными алгоритмами сжатия, а также поддержкой высокого разрешения вплоть до 8K UHD (8192x4320). Первая версия стандарта H.265 была опубликована в начале 2013 года.
- Рипы в фомате HEVC, в настоящее время не поддерживается большинством аппаратных проигрывателей.
- Для корректного воспроизведения может потребоваться обновление ПО.
- Владельцам несовместимого железа просьба не беспокоить, есть альтернативные релизы.
Общее
Уникальный идентификатор : 202326207840538285797714046540887297334 (0x98369C3778EBA662AD3955280B230D36)
Полное имя : E:HEVCLove Actually (2003)Love.Actually.2003.1080p_HEVCCLUB.mkv
Формат : Matroska
Версия формата : Version 4 / Version 2
Размер файла : 10,2 Гбайт
Продолжительность : 2 ч. 14 м.
Общий поток : 10,9 Мбит/сек
Название фильма : Love Actually (2003) - HEVC.CLUB
Дата кодирования : UTC 2016-12-26 16:28:59
Программа кодирования : mkvmerge v9.4.0 ('Knurl') 64bit
Библиотека кодирования : libebml v1.3.4 + libmatroska v1.4.5
Обложка : Yes
Attachments : cover.jpg
Видео
Идентификатор : 1
Формат : HEVC
Формат/Информация : High Efficiency Video Coding
Профиль формата : Main 10@L4.1@High
Идентификатор кодека : V_MPEGH/ISO/HEVC
Продолжительность : 2 ч. 14 м.
Битрейт : 9355 Кбит/сек
Ширина : 1920 пикселей
Высота : 816 пикселей
Соотношение сторон : 2,35:1
Режим частоты кадров : Постоянный
Частота кадров : 23,976 (24000/1001) кадра/сек
Цветовое пространство : YUV
Субдискретизация насыщенности : 4:2:0
Битовая глубина : 10 бит
Бит/(Пиксели*Кадры) : 0.249
Размер потока : 8,81 Гбайт (86%)
Заголовок : HEVC.CLUB
Библиотека кодирования : x265 2.0+18-b0ec268aef60:[Windows][GCC 6.1.0][64 bit] 10bit
Настройки программы : wpp / ctu=32 / min-cu-size=8 / max-tu-size=32 / tu-intra-depth=2 / tu-inter-depth=2 / me=2 / subme=5 / merange=60 / no-rect / no-amp / max-merge=2 / temporal-mvp / no-early-skip / no-rskip / rdpenalty=0 / no-tskip / no-tskip-fast / no-strong-intra-smoothing / no-lossless / no-cu-lossless / no-constrained-intra / no-fast-intra / open-gop / no-temporal-layers / interlace=0 / keyint=250 / min-keyint=23 / scenecut=40 / rc-lookahead=60 / lookahead-slices=1 / bframes=8 / bframe-bias=0 / b-adapt=2 / ref=5 / limit-refs=3 / no-limit-modes / weightp / weightb / aq-mode=1 / qg-size=32 / aq-strength=0.50 / cbqpoffs=0 / crqpoffs=0 / rd=4 / psy-rd=2.00 / rdoq-level=1 / psy-rdoq=3.00 / log2-max-poc-lsb=8 / no-rd-refine / signhide / deblock=-3:-3 / no-sao / no-sao-non-deblock / b-pyramid / no-cutree / no-intra-refresh / rc=crf / crf=22.0 / qcomp=0.80 / qpmin=0 / qpmax=69 / qpstep=6 / vbv-maxrate=50000 / vbv-bufsize=50000 / crf-max=0.0 / ipratio=1.50 / pbratio=1.10
Default : Да
Forced : Да
Цветовой диапазон : Limited
Коэффициенты матрицы : BT.709
Аудио #1
Идентификатор : 2
Формат : DTS
Формат/Информация : Digital Theater Systems
Режим : 16
Параметр Endianness формата : Big
Идентификатор кодека : A_DTS
Продолжительность : 2 ч. 14 м.
Вид битрейта : Постоянный
Битрейт : 756 Кбит/сек
Каналы : 6 каналов
Расположение каналов : Front: L C R, Side: L R, LFE
Частота : 48,0 КГц
Частота кадров : 93,750 кадра/сек (512 spf)
Битовая глубина : 24 бит
Метод сжатия : С потерями
Размер потока : 729 Мбайт (7%)
Заголовок : Dub
Язык : Russian
Default : Нет
Forced : Нет
Аудио #2
Идентификатор : 3
Формат : DTS
Формат/Информация : Digital Theater Systems
Режим : 16
Параметр Endianness формата : Big
Идентификатор кодека : A_DTS
Продолжительность : 1 с. 302 мс.
Вид битрейта : Постоянный
Битрейт : 756 Кбит/сек
Каналы : 6 каналов
Расположение каналов : Front: L C R, Side: L R, LFE
Частота : 48,0 КГц
Частота кадров : 93,750 кадра/сек (512 spf)
Битовая глубина : 24 бит
Метод сжатия : С потерями
Размер потока : 120 Кбайт (0%)
Заголовок : Serbin
Язык : Russian
Default : Нет
Forced : Нет
Аудио #3
Идентификатор : 4
Формат : DTS
Формат/Информация : Digital Theater Systems
Режим : 16
Параметр Endianness формата : Big
Идентификатор кодека : A_DTS
Продолжительность : 2 ч. 14 м.
Вид битрейта : Постоянный
Битрейт : 756 Кбит/сек
Каналы : 6 каналов
Расположение каналов : Front: L C R, Side: L R, LFE
Частота : 48,0 КГц
Частота кадров : 93,750 кадра/сек (512 spf)
Битовая глубина : 24 бит
Метод сжатия : С потерями
Размер потока : 729 Мбайт (7%)
Заголовок : Original
Язык : English
Default : Нет
Forced : Нет
Текст #1
Идентификатор : 5
Формат : UTF-8
Идентификатор кодека : S_TEXT/UTF8
Идентификатор кодека/Информация : UTF-8 Plain Text
Продолжительность : 2 ч. 7 м.
Битрейт : 81 бит/сек
Count of elements : 1404
Размер потока : 76,9 Кбайт (0%)
Заголовок : Rus CP Digital
Язык : Russian
Default : Нет
Forced : Нет
Текст #2
Идентификатор : 6
Формат : UTF-8
Идентификатор кодека : S_TEXT/UTF8
Идентификатор кодека/Информация : UTF-8 Plain Text
Продолжительность : 2 ч. 8 м.
Битрейт : 102 бит/сек
Count of elements : 1627
Размер потока : 96,5 Кбайт (0%)
Заголовок : Rus Elberet
Язык : Russian
Default : Нет
Forced : Нет
Текст #3
Идентификатор : 7
Формат : UTF-8
Идентификатор кодека : S_TEXT/UTF8
Идентификатор кодека/Информация : UTF-8 Plain Text
Продолжительность : 1 ч. 18 м.
Битрейт : 3 бит/сек
Count of elements : 60
Размер потока : 1,87 Кбайт (0%)
Заголовок : Eng forced
Язык : English
Default : Нет
Forced : Нет
Текст #4
Идентификатор : 8
Формат : UTF-8
Идентификатор кодека : S_TEXT/UTF8
Идентификатор кодека/Информация : UTF-8 Plain Text
Продолжительность : 2 ч. 13 м.
Битрейт : 66 бит/сек
Count of elements : 1829
Размер потока : 65,0 Кбайт (0%)
Заголовок : Eng
Язык : English
Default : Нет
Forced : Нет
Меню
00:00:00.000 : ru:Вступление
00:09:42.000 : ru:Причуды судьбы
00:22:41.000 : ru:Государственные дела
00:33:20.000 : ru:Первая любовь
00:46:39.000 : ru:Домработница
00:57:12.000 : ru:Принятие решений
01:08:07.000 : ru:Напряженное свидание
01:20:46.000 : ru:Неделя до Рождества
01:31:39.000 : ru:Канун Рождества
01:41:24.000 : ru:Поздравления
01:54:45.000 : ru:Исправление ошибок
02:06:40.000 : ru:Заключение

v


_________________
Проголосуй за трекер Открытый торрент трекер - RUS-MEDIA.ORG

Проголосуй Открытый торрент трекер - RUS-MEDIA.ORG



реклама партнёра


Вернуться к началу
 Профиль Отправить личное сообщение  
 
   Похожие торренты   Автор   Торрент   Размер 
В этой теме нет новых непрочитанных сообщений. Любовь нельзя купить / Can't Buy Me Love [комедия, мелодрама, драма, 1987] WEB-DL 1080p, Mvo

salma3

15 | 4

3.86 ГБ

В этой теме нет новых непрочитанных сообщений. Любовь есть любовь / Love is love / Wang fu cheng long (Томми Леунг Ка-Шу / Tommy Ga-shu Leung) [1990г., Китай, мелодрама, комедия, HDRip] VO

Alfredovich

6 | 5

1.46 ГБ

В этой теме нет новых непрочитанных сообщений. Любовь, сбивающая с ног / Punch-Drunk Love [триллер, драма, мелодрама, комедия, 2002] BDRemux 1080p, Dvo

salma3

22 | 17

27.48 ГБ

В этой теме нет новых непрочитанных сообщений. Любовь, сбивающая с ног / Punch-Drunk Love [триллер, драма, мелодрама, комедия, 2002] BDRip 720p, Dvo

salma3

0 | 0

5.71 ГБ

В этой теме нет новых непрочитанных сообщений. Сердцеедки / Heartbreakers [мелодрама, комедия, криминал, 2001] BDRip-HEVC 1080p, Dub

salma3

10 | 2

5.08 ГБ

В этой теме нет новых непрочитанных сообщений. Три дня на побег / The Next Three Days [Триллер, драма, мелодрама, 2010] BDRip-HEVC 1080p, Dub

salma3

44 | 5

4.03 ГБ

В этой теме нет новых непрочитанных сообщений. Готика / Gothika [триллер, ужасы, детектив, 2003] BDRip-HEVC 1080p, Dub

salma3

37 | 9

4.23 ГБ


Начать новую тему Ответить на тему  [ 1 сообщение ] 




Для Мосгорсуда, Роскомнадзора и рекламодателей:: mosgorsud-torrent[собачка]yandex.ru