Торрент файл
скачать торрент магнет ссылка Добавлен: 27 дек 2016, 14:18
Размер: 6.78 ГБ
Сидеров: 361
Личеров: 127
Статус: (salma3)
Автор

СообщениеДобавлено: 27 дек 2016, 14:18 

Не в сети
Супермодератор
Аватара пользователя
Дата регистрации:
15 фев 2012, 16:44
Возраст: 28
Спасибо: 6644 / 2146
Сообщения: 45843
Год выпуска: 2016
Страна: Австралия
Жанр: триллер

Перевод: Дубляж - [iTunes]
Продолжительность: 01:31:49

Режиссер: Кристофер Фитчетт

В ролях: Пенелопа Митчелл, Мейв Дермоди, Кристофер Соммерс, Аарон Педерсен, Дэмиен Гарви, Марк Леонард Винтер, Дэнни Болдуин


Описание:
Молодой блестящий психолог Сара Фэйтфул берется за расследование таинственного исчезновения студента. Подозрение падает на его девушку - Скай Уильямс. Место происшествия буквально залито кровью, тело молодого человека бесследно исчезло, а Скай не говорит, не говорит ни слова... Сара хочет помочь девушке, но для этого ей придется спуститься в темные глубины подсознания и укротить своих собственных демонов.




Качество: BDRip 1080p
Формат: MKV
Видео: AVC, 1920x1080 (16:9), 8688 kbps, 23,976 fps, 0,175 bpp
Аудио №1: русский / AC3 / 5.1 / 48 kHz / 384 kbps / |Дубляж, iTunes|
Аудио №2: английский / DTS / 5.1 / 48 kHz / 1509 kbps / 24 bit
Навигация по главам: есть


General
Unique ID : 220629661907416194791812748094810796410 (0xA5FBBA2CF967EC9D8B30B43BCE4EB17A)
Complete name : E:The.Fear.of Darkness.2015.BDRip.1080p.mkv
Format : Matroska
Format version : Version 4 / Version 2
File size : 6.78 GiB
Duration : 1 h 31 min
Overall bit rate : 10.6 Mb/s
Encoded date : UTC 2016-12-27 01:58:02
Writing application : mkvmerge v8.3.0 ('Over the Horizon') 64bit
Writing library : libebml v1.3.1 + libmatroska v1.4.2

Video
ID : 1
Format : AVC
Format/Info : Advanced Video Codec
Format profile : High@L4.1
Format settings, CABAC : Yes
Format settings, ReFrames : 4 frames
Codec ID : V_MPEG4/ISO/AVC
Duration : 1 h 31 min
Bit rate : 8 688 kb/s
Width : 1 920 pixels
Height : 1 080 pixels
Display aspect ratio : 16:9
Frame rate mode : Constant
Frame rate : 23.976 FPS
Color space : YUV
Chroma subsampling : 4:2:0
Bit depth : 8 bits
Scan type : Progressive
Bits/(Pixel*Frame) : 0.175
Stream size : 5.43 GiB (80%)
Writing library : x264 core 148 r2638 7599210
Encoding settings : cabac=1 / ref=4 / deblock=1:0:0 / analyse=0x3:0x133 / me=umh / subme=8 / psy=1 / psy_rd=1.00:0.00 / mixed_ref=1 / me_range=16 / chroma_me=1 / trellis=1 / 8x8dct=1 / cqm=0 / deadzone=21,11 / fast_pskip=0 / chroma_qp_offset=-2 / threads=12 / lookahead_threads=2 / sliced_threads=0 / nr=0 / decimate=1 / interlaced=0 / bluray_compat=0 / constrained_intra=0 / bframes=3 / b_pyramid=2 / b_adapt=1 / b_bias=0 / direct=1 / weightb=1 / open_gop=0 / weightp=2 / keyint=250 / keyint_min=23 / scenecut=40 / intra_refresh=0 / rc_lookahead=40 / rc=2pass / mbtree=1 / bitrate=8688 / ratetol=1.0 / qcomp=0.60 / qpmin=0 / qpmax=69 / qpstep=4 / cplxblur=20.0 / qblur=0.5 / ip_ratio=1.40 / aq=1:1.00
Language : English
Default : Yes
Forced : No

Audio #1
ID : 2
Format : AC-3
Format/Info : Audio Coding 3
Mode extension : CM (complete main)
Format settings, Endianness : Big
Codec ID : A_AC3
Duration : 1 h 31 min
Bit rate mode : Constant
Bit rate : 384 kb/s
Channel(s) : 6 channels
Channel positions : Front: L C R, Side: L R, LFE
Sampling rate : 48.0 kHz
Frame rate : 31.250 FPS (1536 spf)
Compression mode : Lossy
Stream size : 252 MiB (4%)
Language : Russian
Default : Yes
Forced : No

Audio #2
ID : 3
Format : DTS
Format/Info : Digital Theater Systems
Mode : 16
Format settings, Endianness : Big
Codec ID : A_DTS
Duration : 1 h 31 min
Bit rate mode : Constant
Bit rate : 1 509 kb/s
Channel(s) : 6 channels
Channel positions : Front: L C R, Side: L R, LFE
Sampling rate : 48.0 kHz
Frame rate : 93.750 FPS (512 spf)
Bit depth : 24 bits
Compression mode : Lossy
Stream size : 991 MiB (14%)
Language : English
Default : No
Forced : No

Menu
00:00:00.000 : en:1
00:04:12.544 : en:2
00:12:32.085 : en:3
00:23:42.004 : en:4
00:36:02.160 : en:5
00:51:10.651 : en:6
00:59:15.594 : en:7
01:01:41.906 : en:8
01:07:41.515 : en:9
01:13:24.232 : en:10
01:20:01.254 : en:11
01:24:36.362 : en:12
01:31:24.269 : en:13
01:35:41.109 : en:14
01:40:50.126 : en:15
01:52:26.906 : en:16



_________________
Проголосуй за трекер Открытый торрент трекер - RUS-MEDIA.ORG

Проголосуй Открытый торрент трекер - RUS-MEDIA.ORG



реклама партнёра


Вернуться к началу
 Профиль Отправить личное сообщение  
 
   Похожие торренты   Автор   Торрент   Размер 
В этой теме нет новых непрочитанных сообщений. Страх темноты / The Fear of Darkness [ужасы, триллер, 2015] HDRip, Dub [iTunes]

salma3

4244 | 669

1.45 ГБ

В этой теме нет новых непрочитанных сообщений. Обнаженный страх / Naked Fear [ужасы, триллер, 2007] BDRip 1080p, Mvo

salma3

36 | 9

8.22 ГБ

В этой теме нет новых непрочитанных сообщений. Корпорация «Страх» / Fear, Inc. [ужасы, триллер, комедия, 2016] BDRip 1080p, Avo

salma3

315 | 141

6.95 ГБ

В этой теме нет новых непрочитанных сообщений. Страх / Fear [Триллер, ужасы, драма, 1996] BDRemux 1080p, Dub

salma3

5 | 2

22.95 ГБ

В этой теме нет новых непрочитанных сообщений. Страх / Fear [триллер, драма, 1996] BDRip 720p, Dub

salma3

3 | 7

8.17 ГБ

В этой теме нет новых непрочитанных сообщений. Темнота / The Darkness [Ужасы, триллер, 2016] BDRip 1080p, Dub [iTunes]

salma3

177 | 84

9.28 ГБ

В этой теме нет новых непрочитанных сообщений. Корпорация «Страх» / Fear, Inc. [ужасы, триллер, комедия, 2016] WEB-DLRip, Avo

salma3

438 | 120

1.27 ГБ


Начать новую тему Ответить на тему  [ 1 сообщение ] 




Для Мосгорсуда, Роскомнадзора и рекламодателей:: mosgorsud-torrent[собачка]yandex.ru