Торрент файл
скачать торрент магнет ссылка Добавлен: 25 дек 2016, 13:21
Размер: 6.96 ГБ
Сидеров: 112
Личеров: 20
Статус: (salma3)
Автор

СообщениеДобавлено: 25 дек 2016, 13:21 

Не в сети
Супермодератор
Аватара пользователя
Дата регистрации:
15 фев 2012, 16:44
Возраст: 28
Спасибо: 7226 / 2147
Сообщения: 68215
Год выхода: 2011
Страна: США
Студия: Active Entertainment, Bullet Films, XXX Filmproduktion GmbH & Co KG
Продолжительность: 01:29:54
Жанр: ужасы, триллер
Режиссер: Грифф Ферст

В ролях: Никки Делоач, Стивен Коллетти, Анабелла Касанова, Росс Бритс, Терри Кайзер, Мария Боннер, А.Дж. Аллегра, Лара Грис, Майкл Берриман, Трит Уильямс, ...

Перевод:
- Профессиональный (двухголосый, закадровый) НТВ+
- Любительский (одноголосый, закадровый) R1shpil

О фильме: На день рождения Дженнифер бойфренд Эван привёз её за город к ветхому двухэтажному особняку времён гражданской войны и гордо объявил, что купил его в рассрочку и оформил на её имя. Дженнифер покорно приняла подарок, и решив привести своё новое жильё в порядок, парочка вскоре отправилась в близлежащий посёлок за стройматериалами. Местные жители настороженно отнеслись к тому, что у особняка появились новые хозяева, и посоветовали молодёжи на всякий случай не трогать ничего на заднем дворе. Однако было уже поздно: днём ранее Эван нашёл там торчавшее из земли индейское копьё и убрал его с глаз долой, после чего на том месте появилась зловещая яма, похожая на разрытую могилу…



Кодек: x264
Качество: BDRip 1080p
Видео: 1920x1080 , 10000 kbps, 23,976 fps
Аудио #1: AC-3, 2 ch, 448 kbps (Rus) - DVO НТВ+
Аудио #2: AC-3, 2 ch, 192 kbps (Rus) - VO R1shpil
Аудио #3: AC-3, 6 ch, 448 kbps (Eng)
Субтитры: Английские

x264 [info]: frame I:833 Avg QP:14.97 size:220278
x264 [info]: frame P:32607 Avg QP:17.63 size: 98797
x264 [info]: frame B:95896 Avg QP:19.39 size: 34764
x264 [info]: consecutive B-frames: 3.4% 6.7% 5.9% 34.6% 14.5% 29.1% 3.8% 1.2% 0.1% 0.1% 0.1% 0.1% 0.3%

Общее
Уникальный идентификатор : 192753563830868107558741123585110738559 (0x9102FC6D923499D6912CC7071608867F)
Полное имя : Маскарад (Maskerade) 2010 BDRip 1080p.mkv
Формат : Matroska
Версия формата : Version 2
Размер файла : 6,96 Гбайт
Продолжительность : 1 ч. 29 м.
Общий поток : 11,1 Мбит/сек
Дата кодирования : UTC 2016-12-23 18:23:51
Программа кодирования : mkvmerge v4.0.0 ('The Stars were mine') сборка от Jun 6 2010 16:18:42
Библиотека кодирования : libebml v1.0.0 + libmatroska v1.0.0

Видео
Идентификатор : 1
Формат : AVC
Формат/Информация : Advanced Video Codec
Профиль формата : High@L4.1
Параметр CABAC формата : Да
Параметр ReFrames формата : 4 кадра
Идентификатор кодека : V_MPEG4/ISO/AVC
Продолжительность : 1 ч. 29 м.
Битрейт : 10000 Кбит/сек
Ширина : 1920 пикселей
Высота : 1080 пикселей
Соотношение сторон : 16:9
Режим частоты кадров : Постоянный
Частота кадров : 23,976 (24000/1001) кадра/сек
Цветовое пространство : YUV
Субдискретизация насыщенности : 4:2:0
Битовая глубина : 8 бит
Тип развёртки : Прогрессивная
Бит/(Пиксели*Кадры) : 0.201
Размер потока : 6,14 Гбайт (88%)
Библиотека кодирования : x264 core 146 r2538 121396c
Настройки программы : cabac=1 / ref=4 / deblock=1:-3:-3 / analyse=0x3:0x133 / me=umh / subme=11 / psy=1 / psy_rd=1.00:0.00 / mixed_ref=1 / me_range=32 / chroma_me=1 / trellis=2 / 8x8dct=1 / cqm=0 / deadzone=21,11 / fast_pskip=0 / chroma_qp_offset=-2 / threads=12 / lookahead_threads=2 / sliced_threads=0 / nr=0 / decimate=0 / interlaced=0 / bluray_compat=0 / constrained_intra=0 / bframes=12 / b_pyramid=2 / b_adapt=2 / b_bias=0 / direct=3 / weightb=1 / open_gop=0 / weightp=2 / keyint=240 / keyint_min=23 / scenecut=40 / intra_refresh=0 / rc=2pass / mbtree=0 / bitrate=10000 / ratetol=1.0 / qcomp=0.60 / qpmin=0 / qpmax=69 / qpstep=4 / cplxblur=20.0 / qblur=0.5 / ip_ratio=1.40 / pb_ratio=1.30 / aq=1:0.80
Язык : English
Default : Нет
Forced : Нет

Аудио #1
Идентификатор : 2
Формат : AC-3
Формат/Информация : Audio Coding 3
Расширение режима : CM (complete main)
Параметр Endianness формата : Big
Идентификатор кодека : A_AC3
Продолжительность : 1 ч. 29 м.
Вид битрейта : Постоянный
Битрейт : 448 Кбит/сек
Каналы : 2 канала
Расположение каналов : Front: L R
Частота : 48,0 КГц
Частота кадров : 31,250 кадров/сек (1536 spf)
Метод сжатия : С потерями
Размер потока : 288 Мбайт (4%)
Заголовок : DVO НТВ+
Язык : Russian
Default : Нет
Forced : Нет

Аудио #2
Идентификатор : 3
Формат : AC-3
Формат/Информация : Audio Coding 3
Расширение режима : CM (complete main)
Параметр Endianness формата : Big
Идентификатор кодека : A_AC3
Продолжительность : 1 ч. 29 м.
Вид битрейта : Постоянный
Битрейт : 192 Кбит/сек
Каналы : 2 канала
Расположение каналов : Front: L R
Частота : 48,0 КГц
Частота кадров : 31,250 кадров/сек (1536 spf)
Метод сжатия : С потерями
Размер потока : 123 Мбайт (2%)
Заголовок : VO R1shpil
Язык : Russian
Default : Нет
Forced : Нет

Аудио #3
Идентификатор : 4
Формат : AC-3
Формат/Информация : Audio Coding 3
Расширение режима : CM (complete main)
Параметр Endianness формата : Big
Идентификатор кодека : A_AC3
Продолжительность : 1 ч. 29 м.
Вид битрейта : Постоянный
Битрейт : 448 Кбит/сек
Каналы : 6 каналов
Расположение каналов : Front: L C R, Side: L R, LFE
Частота : 48,0 КГц
Частота кадров : 31,250 кадров/сек (1536 spf)
Метод сжатия : С потерями
Размер потока : 288 Мбайт (4%)
Язык : English
Default : Нет
Forced : Нет

Текст
Идентификатор : 5
Формат : UTF-8
Идентификатор кодека : S_TEXT/UTF8
Идентификатор кодека/Информация : UTF-8 Plain Text
Язык : English
Default : Нет
Forced : Нет



_________________
Проголосуй за трекер Открытый торрент трекер - RUS-MEDIA.ORG

Проголосуй Открытый торрент трекер - RUS-MEDIA.ORG


Вернуться к началу
 Профиль Отправить личное сообщение  
 
   Похожие торренты   Автор   Торрент   Размер 
В этой теме нет новых непрочитанных сообщений. Маленькие смерти / Little Deaths [ужасы, триллер, 2011] BDRip 1080p, Mvo+Avo+Sub

salma3

146 | 110

7.14 ГБ

В этой теме нет новых непрочитанных сообщений. БайБайМэн / The Bye Bye Man [ужасы, триллер, 2017] BDRip 1080p, Mvo

salma3

261 | 69

7.17 ГБ

В этой теме нет новых непрочитанных сообщений. Голод / Hunger [ужасы, триллер, 2009] BDRip 1080p, Mvo

salma3

49 | 35

8.9 ГБ

В этой теме нет новых непрочитанных сообщений. Абатуар / Abattoir [ужасы, триллер, 2016] BDRip 1080p, Dvo

salma3

69 | 10

8.28 ГБ

В этой теме нет новых непрочитанных сообщений. Джулия / Julia [ужасы, триллер, 2014] BDRip 1080p, Dvo

salma3

65 | 23

6.17 ГБ

В этой теме нет новых непрочитанных сообщений. Глюки / Bug [Ужасы, триллер, драма, 2006] BDRip 1080p, Dub

salma3

12 | 3

8.22 ГБ

В этой теме нет новых непрочитанных сообщений. Дом 4 / House IV [ужасы, фэнтези, триллер, 1992] BDRip 1080p, Mvo

salma3

65 | 44

9.33 ГБ


Начать новую тему Ответить на тему  [ 1 сообщение ] 




Для Мосгорсуда, Роскомнадзора и рекламодателей:: mosgorsud-torrent[собачка]yandex.ru
cron