Торрент файл
скачать торрент магнет ссылка Добавлен: 24 дек 2016, 22:25
Размер: 21.39 ГБ
Сидеров: 41
Личеров: 33
Статус: (salma3)
Автор

СообщениеДобавлено: 24 дек 2016, 22:25 

Не в сети
Супермодератор
Аватара пользователя
Дата регистрации:
15 фев 2012, 16:44
Возраст: 29
Спасибо: 7328 / 2147
Сообщения: 73609
Год выхода: 1992
Жанр: Триллер, драма, криминал, детектив
Режиссер: Брюс Робинсон

В ролях: Энди Гарсиа, Ума Турман, Лэнс Хенриксен, Грэм Беккел, Кэти Бэйкер, Кевин Конуэй, Джон Малкович, Перри Лэнг, Николас Лав, Майкл О’Нил, Пол Бейтс, Боб Гантон, Ленни фон Долен, Брайан Ларкин, Деббон Эйер, Эдди Корбич, Стефен Пьемонт II, Кен Камру, Кэрол Шнайдер, Дебора Спектор

О фильме:
У детектива Джона Берлина, идущего по следу серийного убийцы, нет ни улик, ни подозреваемых. И нет алиби. Уставший от напряженного ритма «каменных джунглей», приходящий в себя после неудачного брака, только излечившийся от алкоголизма лос-анжелесский полицейский Джон Берлин решает сменить обстановку. Он принимает приглашение своего друга и коллеги и приезжает в маленький городок на севере Калифорнии. Но вместо желанной тихой сельской жизни Джону приходится включиться в поиски серийного убийцы, чьими жертвами стали семь молоденьких слепых девушек.



Страна: США
Студия: Paramount Pictures
Продолжительность: 02:05:21
Перевод: Многоголосый закадровый, Двухголосый закадровый, Авторский

Файл
Кодек: h.264
Качество: BDRip 1080p
Видео: MPEG-4 AVC, 18750 Кбит/с, 1920x1072, 23,976 кадр/с
Звук:
Русский (AC3, 2 ch, 192 Кбит/с) / Многоголосый закадровый (СТС)
Русский (AC3, 2 ch, 192 Кбит/с) / Двухголосый закадровый (Премьер Видео)
Русский (AC3, 2 ch, 192 Кбит/с) / Двухголосый закадровый (Paramount Сhannel)
Русский (DTS, 6 ch, 1509 Кбит/с) / Авторский (А.Гаврилов)
Русский (DTS, 6 ch, 1509 Кбит/с) / Авторский (Ю.Живов)
Русский (AC3, 2 ch, 192 Кбит/с) / Авторский (Л.Володарский)
Украинский (AC3, 2 ch, 192 Кбит/с) / Многоголосый закадровый (Интер)
Украинский (AC3, 2 ch, 192 Кбит/с) / Двухголосый закадровый (ICTV)
Английский (DTS, 6 ch, 1509 Кбит/с)
Субтитры: Нет

Семпл

Автор релиза - Silverok, за BDRemux спасибо delia
Работа со звуком Spiellberg
General
Unique ID : 206278742194175936882345301118810787683 (0x9B2FD734B8EE8708BC7F4940CDCB0F63)
Complete name : D:uTorrentDzhennifer_8.1992.BDRip.1080p.MediaClub.mkv
Format : Matroska
Format version : Version 4 / Version 2
File size : 21.4 GiB
Duration : 2 h 5 min
Overall bit rate : 24.4 Mb/s
Encoded date : UTC 2016-12-24 09:06:10
Writing application : mkvmerge v9.4.2 ('So High') 64bit
Writing library : libebml v1.3.4 + libmatroska v1.4.5

Video
ID : 1
Format : AVC
Format/Info : Advanced Video Codec
Format profile : High@L4.1
Format settings, CABAC : Yes
Format settings, ReFrames : 4 frames
Codec ID : V_MPEG4/ISO/AVC
Duration : 2 h 5 min
Bit rate : 18.8 Mb/s
Width : 1 920 pixels
Height : 1 072 pixels
Display aspect ratio : 16:9
Frame rate mode : Constant
Frame rate : 23.976 (24000/1001) FPS
Color space : YUV
Chroma subsampling : 4:2:0
Bit depth : 8 bits
Scan type : Progressive
Bits/(Pixel*Frame) : 0.380
Stream size : 16.4 GiB (77%)
Title : BDRip by Silverok
Writing library : x264 core 148 r2638 7599210
Encoding settings : cabac=1 / ref=4 / deblock=1:-3:-3 / analyse=0x3:0x113 / me=umh / subme=11 / psy=1 / psy_rd=1.00:0.18 / mixed_ref=1 / me_range=32 / chroma_me=1 / trellis=2 / 8x8dct=1 / cqm=0 / deadzone=21,11 / fast_pskip=0 / chroma_qp_offset=-3 / threads=6 / lookahead_threads=1 / sliced_threads=0 / nr=0 / decimate=0 / interlaced=0 / bluray_compat=0 / constrained_intra=0 / bframes=16 / b_pyramid=2 / b_adapt=2 / b_bias=0 / direct=3 / weightb=1 / open_gop=0 / weightp=2 / keyint=240 / keyint_min=24 / scenecut=40 / intra_refresh=0 / rc_lookahead=40 / rc=2pass / mbtree=0 / bitrate=18750 / ratetol=1.0 / qcomp=0.60 / qpmin=0 / qpmax=69 / qpstep=4 / cplxblur=20.0 / qblur=0.5 / vbv_maxrate=62500 / vbv_bufsize=78125 / nal_hrd=none / filler=0 / ip_ratio=1.40 / pb_ratio=1.30 / aq=1:1.00
Default : Yes
Forced : No

Audio #1
ID : 2
Format : AC-3
Format/Info : Audio Coding 3
Mode extension : CM (complete main)
Format settings, Endianness : Big
Codec ID : A_AC3
Duration : 2 h 5 min
Bit rate mode : Constant
Bit rate : 192 kb/s
Channel(s) : 2 channels
Channel positions : Front: L R
Sampling rate : 48.0 kHz
Frame rate : 31.250 FPS (1536 spf)
Compression mode : Lossy
Stream size : 172 MiB (1%)
Title : Многоголосый закадровый (СТС)
Language : Russian
Default : Yes
Forced : No

Audio #2
ID : 3
Format : AC-3
Format/Info : Audio Coding 3
Mode extension : CM (complete main)
Format settings, Endianness : Big
Codec ID : A_AC3
Duration : 2 h 5 min
Bit rate mode : Constant
Bit rate : 192 kb/s
Channel(s) : 2 channels
Channel positions : Front: L R
Sampling rate : 48.0 kHz
Frame rate : 31.250 FPS (1536 spf)
Compression mode : Lossy
Stream size : 172 MiB (1%)
Title : Двухголосый закадровый (Премьер Видео)
Language : Russian
Default : No
Forced : No

Audio #3
ID : 4
Format : AC-3
Format/Info : Audio Coding 3
Mode extension : CM (complete main)
Format settings, Endianness : Big
Codec ID : A_AC3
Duration : 2 h 5 min
Bit rate mode : Constant
Bit rate : 192 kb/s
Channel(s) : 2 channels
Channel positions : Front: L R
Sampling rate : 48.0 kHz
Frame rate : 31.250 FPS (1536 spf)
Compression mode : Lossy
Stream size : 172 MiB (1%)
Title : Двухголосый закадровый (Paramount Сhannel)
Language : Russian
Default : No
Forced : No

Audio #4
ID : 5
Format : DTS
Format/Info : Digital Theater Systems
Mode : 16
Format settings, Endianness : Big
Codec ID : A_DTS
Duration : 2 h 5 min
Bit rate mode : Constant
Bit rate : 1 509 kb/s
Channel(s) : 6 channels
Channel positions : Front: L C R, Side: L R, LFE
Sampling rate : 48.0 kHz
Frame rate : 93.750 FPS (512 spf)
Bit depth : 24 bits
Compression mode : Lossy
Stream size : 1.32 GiB (6%)
Title : Одноголосый закадровый (А.Гаврилов)
Language : Russian
Default : No
Forced : No

Audio #5
ID : 6
Format : DTS
Format/Info : Digital Theater Systems
Mode : 16
Format settings, Endianness : Big
Codec ID : A_DTS
Duration : 2 h 5 min
Bit rate mode : Constant
Bit rate : 1 509 kb/s
Channel(s) : 6 channels
Channel positions : Front: L C R, Side: L R, LFE
Sampling rate : 48.0 kHz
Frame rate : 93.750 FPS (512 spf)
Bit depth : 24 bits
Compression mode : Lossy
Stream size : 1.32 GiB (6%)
Title : Одноголосый закадровый (Ю.Живов)
Language : Russian
Default : No
Forced : No

Audio #6
ID : 7
Format : AC-3
Format/Info : Audio Coding 3
Mode extension : CM (complete main)
Format settings, Endianness : Big
Codec ID : A_AC3
Duration : 2 h 5 min
Bit rate mode : Constant
Bit rate : 192 kb/s
Channel(s) : 2 channels
Channel positions : Front: L R
Sampling rate : 48.0 kHz
Frame rate : 31.250 FPS (1536 spf)
Compression mode : Lossy
Stream size : 172 MiB (1%)
Title : Одноголосый закадровый (Л.Володарский)
Language : Russian
Default : No
Forced : No

Audio #7
ID : 8
Format : AC-3
Format/Info : Audio Coding 3
Mode extension : CM (complete main)
Format settings, Endianness : Big
Codec ID : A_AC3
Duration : 2 h 5 min
Bit rate mode : Constant
Bit rate : 192 kb/s
Channel(s) : 2 channels
Channel positions : Front: L R
Sampling rate : 48.0 kHz
Frame rate : 31.250 FPS (1536 spf)
Compression mode : Lossy
Stream size : 172 MiB (1%)
Title : Многоголосый закадровый (Интер)
Language : Ukrainian
Default : No
Forced : No

Audio #8
ID : 9
Format : AC-3
Format/Info : Audio Coding 3
Mode extension : CM (complete main)
Format settings, Endianness : Big
Codec ID : A_AC3
Duration : 2 h 5 min
Bit rate mode : Constant
Bit rate : 192 kb/s
Channel(s) : 2 channels
Channel positions : Front: L R
Sampling rate : 48.0 kHz
Frame rate : 31.250 FPS (1536 spf)
Compression mode : Lossy
Stream size : 172 MiB (1%)
Title : Двухголосый закадровый (ICTV)
Language : Ukrainian
Default : No
Forced : No

Audio #9
ID : 10
Format : DTS
Format/Info : Digital Theater Systems
Mode : 16
Format settings, Endianness : Big
Codec ID : A_DTS
Duration : 2 h 5 min
Bit rate mode : Constant
Bit rate : 1 509 kb/s
Channel(s) : 6 channels
Channel positions : Front: L C R, Side: L R, LFE
Sampling rate : 48.0 kHz
Frame rate : 93.750 FPS (512 spf)
Bit depth : 24 bits
Compression mode : Lossy
Stream size : 1.32 GiB (6%)
Language : English
Default : No
Forced : No


Релиз от: | Silverok


_________________
Проголосуй за трекер Открытый торрент трекер - RUS-MEDIA.ORG

Проголосуй Открытый торрент трекер - RUS-MEDIA.ORG


Вернуться к началу
 Профиль Отправить личное сообщение  
 
   Похожие торренты   Автор   Торрент   Размер 
В этой теме нет новых непрочитанных сообщений. Дженнифер 8 / Jennifer Eight [Триллер, детектив, драма, криминал, 1992] BDRemux 1080p, Mvo+Dvo+Avo+Sub

salma3

2 | 9

34.99 ГБ

В этой теме нет новых непрочитанных сообщений. Тело Дженнифер / Jennifer's Body [Ужасы, триллер, комедия, 2009] Blu-ray 1080p, Dub

salma3

0 | 12

44.39 ГБ

В этой теме нет новых непрочитанных сообщений. Тело Дженнифер / Jennifer's Body [Ужасы, комедия, 2009] BDRip 1080p, Dub [Лицензия] [UNRATED]

salma3

0 | 0

12.2 ГБ

В этой теме нет новых непрочитанных сообщений. Тело Дженнифер / Jennifer's Body [ужасы, комедия, 2009] BDRip-HEVC 1080p, Dub [Unrated Cut]

salma3

10 | 12

6.25 ГБ

В этой теме нет новых непрочитанных сообщений. Основной инстинкт / Basic Instinct [триллер, драма, детектив, 1992] BDRip 1080p, Mvo

salma3

15 | 9

14.45 ГБ

В этой теме нет новых непрочитанных сообщений. Авторитет / Сок / Закваска / Juice [Триллер, драма, криминал, 1992] BDRip 1080p, Dvo

salma3

43 | 27

10.34 ГБ

В этой теме нет новых непрочитанных сообщений. Плохой лейтенант / Bad Lieutenant [триллер, драма, криминал, 1992] BDRip 1080p, Mvo

salma3

46 | 37

9.35 ГБ


Начать новую тему Ответить на тему  [ 1 сообщение ] 




Для Мосгорсуда, Роскомнадзора и рекламодателей:: mosgorsud-torrent[собачка]yandex.ru
cron