Торрент файл
скачать торрент магнет ссылка Добавлен: 23 дек 2016, 23:00
Размер: 7.67 ГБ
Сидеров: 63
Личеров: 24
Статус: (salma3)
Автор

СообщениеДобавлено: 23 дек 2016, 22:59 

Не в сети
Супермодератор
Аватара пользователя
Дата регистрации:
15 фев 2012, 16:44
Возраст: 28
Спасибо: 7061 / 2147
Сообщения: 59169
Страна: США
Год выпуска: 1989
Жанр: боевик, триллер, драма, криминал
Продолжительность: 01:42:00
Перевод №1: Профессиональный (многоголосый закадровый)
Перевод №2: Авторский (одноголосый закадровый) Андрей Гаврилов
Оригинальная аудиодорожка: нет

Режиссер: Кэтрин Бигелоу

Актеры: Джейми Ли Кёртис, Рон Сильвер, Клэнси Браун, Элизабет Пенья, Луиза Флетчер, Филип Боско, Кевин Данн, Ричард Дженкинс, Маркус Флэннаган, Мэри Мара

Описание фильма: Офицер полиции Миган только что закончила специальную полицейскую школу. И в ходе первого же дежурства револьвер грабителя, застреленного ею «по всем правилам», случайно попадает в руки финансового брокера Юджина. В связи с исчезновением важнейшей улики возбуждается расследование «проступка» Миган, а в городе начинается серия убийств, связанных с ее именем…



Файл
Качество видео: BDRip 720p Исходник: Blu-ray Disc
Формат: MKV Видео кодек: MPEG-4 AVC Аудио кодек: AC3
Видео: 1280x720 (16:9) at 23.976 fps, AVC at 10270 kbps avg, 0.460 bit/pixel
Аудио №1: 48 kHz, AC3 Dolby Digital, 2/0 (L,R) ch, 192 kbps avg
Аудио №2: 48 kHz, AC3 Dolby Digital, 2/0 (L,R) ch, 192 kbps avg

Автор рипа & Релиз группа

Голубая сталь.1989.720p.BluRay.x264-LEONARDO.mkv
Формат : Matroska
Версия формата : Version 2
Размер файла : 7,67 Гбайт
Продолжительность : 1 ч. 42 м.
Общий поток : 10,8 Мбит/сек
Название фильма : Release by Leonardo for leohd59.ru
Дата кодирования : UTC 2016-12-10 13:28:51
Программа кодирования : mkvmerge v5.8.0 ('No Sleep / Pillow') built on Sep 2 2012 15:37:04
Библиотека кодирования : libebml v1.2.3 + libmatroska v1.3.0

Видео
Идентификатор : 1
Формат : AVC
Формат/Информация : Advanced Video Codec
Профиль формата : High@L4.1
Параметр CABAC формата : Да
Параметр ReFrames формата : 9 кадров
Идентификатор кодека : V_MPEG4/ISO/AVC
Продолжительность : 1 ч. 42 м.
Битрейт : 10,2 Мбит/сек
Ширина : 1280 пикселей
Высота : 720 пикселей
Соотношение сторон : 16:9
Режим частоты кадров : Постоянный
Частота кадров : 23,976 (24000/1001) кадра/сек
Цветовое пространство : YUV
Субдискретизация насыщенности : 4:2:0
Битовая глубина : 8 бит
Тип развёртки : Прогрессивная
Бит/(Пиксели*Кадры) : 0.460
Размер потока : 7,24 Гбайт (94%)
Библиотека кодирования : x264 core 125 r2208 d9d2288
Настройки программы : cabac=1 / ref=9 / deblock=1:-3:-3 / analyse=0x3:0x133 / me=umh / subme=11 / psy=1 / psy_rd=1.00:0.20 / mixed_ref=1 / me_range=32 / chroma_me=1 / trellis=2 / 8x8dct=1 / cqm=0 / deadzone=21,11 / fast_pskip=0 / chroma_qp_offset=-3 / threads=12 / lookahead_threads=2 / sliced_threads=0 / nr=0 / decimate=1 / interlaced=0 / bluray_compat=0 / constrained_intra=0 / bframes=12 / b_pyramid=2 / b_adapt=2 / b_bias=0 / direct=3 / weightb=1 / open_gop=0 / weightp=2 / keyint=250 / keyint_min=23 / scenecut=40 / intra_refresh=0 / rc=crf / mbtree=0 / crf=17.0 / qcomp=0.60 / qpmin=0 / qpmax=69 / qpstep=4 / ip_ratio=1.40 / pb_ratio=1.30 / aq=1:1.00
Язык : English
Default : Да
Forced : Нет

Аудио #1
Идентификатор : 2
Формат : AC-3
Формат/Информация : Audio Coding 3
Расширение режима : CM (complete main)
Параметр Endianness формата : Big
Идентификатор кодека : A_AC3
Продолжительность : 1 ч. 42 м.
Вид битрейта : Постоянный
Битрейт : 192 Кбит/сек
Каналы : 2 канала
Расположение каналов : Front: L R
Частота : 48,0 КГц
Частота кадров : 31,250 кадров/сек (1536 spf)
Метод сжатия : С потерями
Размер потока : 140 Мбайт (2%)
Язык : Russian
Default : Да
Forced : Нет

Аудио #2
Идентификатор : 3
Формат : AC-3
Формат/Информация : Audio Coding 3
Расширение режима : CM (complete main)
Параметр Endianness формата : Big
Идентификатор кодека : A_AC3
Продолжительность : 1 ч. 42 м.
Вид битрейта : Постоянный
Битрейт : 192 Кбит/сек
Каналы : 2 канала
Расположение каналов : Front: L R
Частота : 48,0 КГц
Частота кадров : 31,250 кадров/сек (1536 spf)
Метод сжатия : С потерями
Размер потока : 140 Мбайт (2%)
Язык : Russian
Default : Нет
Forced : Нет



_________________
Проголосуй за трекер Открытый торрент трекер - RUS-MEDIA.ORG

Проголосуй Открытый торрент трекер - RUS-MEDIA.ORG


Вернуться к началу
 Профиль Отправить личное сообщение  
 
   Похожие торренты   Автор   Торрент   Размер 
В этой теме нет новых непрочитанных сообщений. Голубая сталь / Blue Steel [Триллер, детектив, боевик, драма, 1989] BDRip-AVC, Mvo+Dvo+Avo+Sub

salma3

20 | 3

2.72 ГБ

В этой теме нет новых непрочитанных сообщений. Мистер Сталь / Сталь / Steel [фантастика, боевик, криминал, 1997] DVDRip-AVC, Dub [Варус Видео]

salma3

0 | 2

1.45 ГБ

В этой теме нет новых непрочитанных сообщений. Голубая кровь / Blue Bloods [S07] [Драма, криминал, 2016] HDTVRip 720p, Dvo [SunshineStudio]

salma3

34 | 70

18.79 ГБ

В этой теме нет новых непрочитанных сообщений. Голубая кровь / Blue Bloods / 3 сезон 1-23 серии из 23 [Драма, криминал, 2012] WEB-DL 720p, Dvo [CBS Drama]

salma3

5 | 16

31.53 ГБ

В этой теме нет новых непрочитанных сообщений. Живая сталь / Real Steel [Фантастика, боевик, семейный, 2011] BDRip 1080, Dub

salma3

8 | 6

16.17 ГБ

В этой теме нет новых непрочитанных сообщений. Голубая кровь / Blue Bloods / 8 сезон 1-18 серии из 22 [Драма, криминал, 2017] WEBRip 720p, Mvo [Jaskier]

salma3

0 | 0

30.43 ГБ

В этой теме нет новых непрочитанных сообщений. Живая сталь / Real Steel [фантастика, боевик, семейный, 2011] BDRip-HEVC 1080p, Dub

salma3

59 | 24

6.57 ГБ


Начать новую тему Ответить на тему  [ 1 сообщение ] 




Для Мосгорсуда, Роскомнадзора и рекламодателей:: mosgorsud-torrent[собачка]yandex.ru
cron