Торрент файл
скачать торрент магнет ссылка Добавлен: 23 дек 2016, 22:57
Размер: 7.87 ГБ
Сидеров: 73
Личеров: 19
Статус: (salma3)
Автор

СообщениеДобавлено: 23 дек 2016, 22:57 

Не в сети
Супермодератор
Аватара пользователя
Дата регистрации:
15 фев 2012, 16:44
Возраст: 29
Спасибо: 7377 / 2147
Сообщения: 75902
Год выхода: 1979
Жанр: Боевик, боевые искусства, комедия
Режиссер: Юэнь Ву-пин
В ролях: Саммо Хунг, Куань Такхин, Юэнь Бяо, Вэй Пай, Мей Шенг Фэн, Фэт Чунг, Хой Сан Ли, Фунг Харк-Он, Кики Чен

О фильме:
Один из учеников знаменитого Вонга Фей-Хунга, мясник по имени Лам Ка-Винг, постоянно влипает в разные неприятности, хотя его вины в этом обычно нет. Вот и на этот раз проблемы устраивает сын мастера кунгфу из соседней школы, отнявший силой жену брата Лам Ка-Винга. Вонг Фей-Хунг уезжает из города по делам и если бы не «залетный» учитель боевых искусств, не сносить бы Вингу головы.

Страна: Гонконг
Продолжительность: 01:48:30
Перевод:
1. Авторский одноголосый закадровый (Андрей Дольский)
2. Авторский одноголосый закадровый (Сергей Кузнецов)

Файл
Кодек: x264, AVC
Качество: BDRip 1080p
Видео: 1920x816, 10000 kbps, 23,976 fps
Звук:
1. AC3, 192 kbps, 48 KHz, 2 channels
2. AC3, 192 kbps, 48 KHz, 2 channels

Чаптеры сохранены

General
Unique ID : 218929750801465044458842081038244726981 (0xA4B456165A558E98BB05B90EBA1348C5)
Complete name : Великолепный мясник [Lin Shi Rong, 1979] 1080p.mkv
Format : Matroska
Format version : Version 2
File size : 7.87 GiB
Duration : 1 h 48 min
Overall bit rate : 10.4 Mb/s
Movie name : The Magnificent Butcher (1979)
Encoded date : UTC 2016-12-05 17:55:55
Writing application : mkvmerge v4.2.0 ('No Talking') сборка от Jul 28 2010 18:38:23
Writing library : libebml v1.0.0 + libmatroska v1.0.0

Video
ID : 1
Format : AVC
Format/Info : Advanced Video Codec
Format profile : High@L4.1
Format settings, CABAC : Yes
Format settings, ReFrames : 5 frames
Muxing mode : Header stripping
Codec ID : V_MPEG4/ISO/AVC
Duration : 1 h 48 min
Bit rate : 10 000 kb/s
Width : 1 920 pixels
Height : 816 pixels
Display aspect ratio : 2.35:1
Frame rate mode : Constant
Frame rate : 23.976 (24000/1001) FPS
Color space : YUV
Chroma subsampling : 4:2:0
Bit depth : 8 bits
Scan type : Progressive
Bits/(Pixel*Frame) : 0.266
Stream size : 7.42 GiB (94%)
Title : The Magnificent Butcher (1979)
Writing library : x264 core 148 r2638 7599210
Encoding settings : cabac=1 / ref=5 / deblock=1:-3:-3 / analyse=0x3:0x133 / me=umh / subme=11 / psy=1 / psy_rd=1.00:0.15 / mixed_ref=1 / me_range=64 / chroma_me=1 / trellis=2 / 8x8dct=1 / cqm=0 / deadzone=21,11 / fast_pskip=1 / chroma_qp_offset=-3 / threads=6 / lookahead_threads=1 / sliced_threads=0 / nr=0 / decimate=1 / interlaced=0 / bluray_compat=0 / constrained_intra=0 / bframes=3 / b_pyramid=2 / b_adapt=2 / b_bias=0 / direct=3 / weightb=1 / open_gop=0 / weightp=2 / keyint=240 / keyint_min=23 / scenecut=40 / intra_refresh=0 / rc_lookahead=60 / rc=2pass / mbtree=1 / bitrate=10000 / ratetol=1.0 / qcomp=0.60 / qpmin=0 / qpmax=51 / qpstep=4 / cplxblur=20.0 / qblur=0.5 / vbv_maxrate=62500 / vbv_bufsize=78125 / nal_hrd=none / filler=0 / ip_ratio=1.40 / aq=1:1.00
Default : Yes
Forced : No

Audio #1
ID : 2
Format : AC-3
Format/Info : Audio Coding 3
Mode extension : CM (complete main)
Format settings, Endianness : Big
Muxing mode : Header stripping
Codec ID : A_AC3
Duration : 1 h 48 min
Bit rate mode : Constant
Bit rate : 192 kb/s
Channel(s) : 2 channels
Channel positions : Front: L R
Sampling rate : 48.0 kHz
Frame rate : 31.250 FPS (1536 spf)
Compression mode : Lossy
Delay relative to video : 32 ms
Stream size : 149 MiB (2%)
Title : Дольский
Language : Russian
Default : Yes
Forced : No

Audio #2
ID : 3
Format : AC-3
Format/Info : Audio Coding 3
Mode extension : CM (complete main)
Format settings, Endianness : Big
Muxing mode : Header stripping
Codec ID : A_AC3
Duration : 1 h 48 min
Bit rate mode : Constant
Bit rate : 192 kb/s
Channel(s) : 2 channels
Channel positions : Front: L R
Sampling rate : 48.0 kHz
Frame rate : 31.250 FPS (1536 spf)
Compression mode : Lossy
Delay relative to video : 32 ms
Stream size : 149 MiB (2%)
Title : Кузнецов
Language : Russian
Default : No
Forced : No

Menu
00:00:00.000 : en:Chapter 1
00:05:09.475 : en:Chapter 2
00:08:19.040 : en:Chapter 3
00:15:22.129 : en:Chapter 4
00:19:33.255 : en:Chapter 5
00:24:43.773 : en:Chapter 6
00:30:02.133 : en:Chapter 7
00:34:17.889 : en:Chapter 8
00:39:20.066 : en:Chapter 9
00:47:01.985 : en:Chapter 10
00:51:33.423 : en:Chapter 11
00:57:31.614 : en:Chapter 12
01:01:59.507 : en:Chapter 13
01:05:25.504 : en:Chapter 14
01:13:52.803 : en:Chapter 15
01:18:55.647 : en:Chapter 16
01:24:53.087 : en:Chapter 17
01:27:48.179 : en:Chapter 18
01:32:20.117 : en:Chapter 19
01:36:44.798 : en:Chapter 20
01:48:16.917 : en:Chapter 21


_________________
Проголосуй за трекер Открытый торрент трекер - RUS-MEDIA.ORG

Проголосуй Открытый торрент трекер - RUS-MEDIA.ORG


Вернуться к началу
 Профиль Отправить личное сообщение  
 
   Похожие торренты   Автор   Торрент   Размер 
В этой теме нет новых непрочитанных сообщений. Бесстрашная гиена / Xiao quan guai zhao [Боевик, боевые искусства, комедия, 1979] BD-Rip 1080p, Avo+Dvo

salma3

6 | 6

6.6 ГБ

В этой теме нет новых непрочитанных сообщений. Бесстрашная гиена 2 / Long teng hu yue [Боевик, боевые искусства, комедия, 1983] BDRip 1080p, Mvo

salma3

13 | 7

5.85 ГБ

В этой теме нет новых непрочитанных сообщений. Астральное кунг-фу / Quan jing [Боевик, боевые искусства, комедия, 1987] BDRip 1080p. Mvo

salma3

6 | 6

6.41 ГБ

В этой теме нет новых непрочитанных сообщений. Драка в Бэттл-Крик / The Battle Creek Brawl [Боевик, комедия, боевые искусства, 1980] BDRip 1080p , Mvo

salma3

6 | 10

7.25 ГБ

В этой теме нет новых непрочитанных сообщений. Легенда / Fong Sai Yuk [Боевик, боевые искусства, 1993] BDRip 1080p, Mvo

salma3

42 | 7

6.07 ГБ

В этой теме нет новых непрочитанных сообщений. Два воина / Tai ji: Zhang San Feng [Боевик, боевые искусства, 1993] BDRip 1080p, Mvo

salma3

65 | 24

6.11 ГБ

В этой теме нет новых непрочитанных сообщений. Рука смерти / Shao Lin men [Боевик, боевые искусства, 1976] BDRip 1080p, Mvo

salma3

13 | 8

6.57 ГБ


Начать новую тему Ответить на тему  [ 1 сообщение ] 




Для Мосгорсуда, Роскомнадзора и рекламодателей:: mosgorsud-torrent[собачка]yandex.ru
cron