Торрент файл
скачать торрент магнет ссылка Добавлен: 23 дек 2016, 18:16
Размер: 4.73 ГБ
Сидеров: 56
Личеров: 16
Статус: (salma3)
Автор

СообщениеДобавлено: 23 дек 2016, 18:16 

В сети
Супермодератор
Аватара пользователя
Дата регистрации:
15 фев 2012, 16:44
Возраст: 28
Спасибо: 7057 / 2147
Сообщения: 58550
Год выхода: 2016
Жанр: драма, мелодрама, комедия
Режиссер: Норихидо Коидзуми

В ролях: Судзу Хиросэ, Монэ Камисираиси, Дзюн Кунимура, Макэню, Миюки Мацуда, Маю Мацуока, Юки Моринага, Сюхэй Номура, Рётаро Сакагути, Хироя Симидзу

О фильме:Главная героиня - школьница Чихая. Она мечтает только об одном - чтобы её сестра стала самой популярной моделью. Во время нового учебного года в класс Чихаи переходит неприметный ученик. Арата покажет Чихае, что нельзя присвоить чужую мечту. Девушке необходимо будет самой найти к чему стремиться в жизни. Неожиданно Чихая заинтересовалась карточной игрой, в которую любит играть Арата. Только одна игра в карты смогла определить всю дальнейшую жизнь девушки. Теперь Чихая мечтает стать Королевой Каруты. Получится ли у школьницы воплотить свою мечту в жизнь?



Страна: Япония
Продолжительность: 01:51:15
Перевод: Одноголосый закадровый GREEN TEA (Екатерина Юрьева) / Перевод: ФСГ 'MAGICIANS'
Cубтитры: английские (SkewedS)
Оригинальная аудиодорожка: японский

Файл
Кодек: x264
Качество: BDRip 720p
Видео: 1280x536 (2.40:1) at 23,976 fps, 4266 Кbps, 0.259 bpp]
Аудио 1: AC3; 192 Kbps; CBR; 2 ch; 48 khz | VO - GREEN TEA |
Аудио 2: DTS; 1536 Kbps; CBR; 6 ch; 48 khz | Японский |


General
Unique ID : 172409268803451791888529148192949919913 (0x81B4D13DB562DBA48B713FAD3891E0A9)
Complete name : Яркая Чихая. Часть 1.2016.VO.720p.BluRay.x264-HDS.mkv
Format : Matroska
Format version : Version 4 / Version 2
File size : 4.73 GiB
Duration : 1h 51mn
Overall bit rate : 6 088 Kbps
Movie name : Chihayafuru Part I [2016] [720p] VO
Encoded date : UTC 2016-12-19 09:47:01
Writing application : mkvmerge v7.8.0 ('River Man') 32bit built on Mar 27 2015 16:18:02
Writing library : libebml v1.3.1 + libmatroska v1.4.2

Video
ID : 1
Format : AVC
Format/Info : Advanced Video Codec
Format profile : High@L4.1
Format settings, CABAC : Yes
Format settings, ReFrames : 12 frames
Codec ID : V_MPEG4/ISO/AVC
Duration : 1h 51mn
Bit rate : 4 266 Kbps
Width : 1 280 pixels
Height : 536 pixels
Display aspect ratio : 2.40:1
Frame rate mode : Constant
Frame rate : 23.976 fps
Color space : YUV
Chroma subsampling : 4:2:0
Bit depth : 8 bits
Scan type : Progressive
Bits/(Pixel*Frame) : 0.259
Stream size : 3.31 GiB (70%)
Writing library : x264 core 148 r2699+6+41 29a38aa Yuuki [8-bit@4:2:0 X86_64][GCC 5.3.0]
Encoding settings : cabac=1 / ref=12 / deblock=1:-3:-3 / analyse=0x3:0x113 / me=umh / subme=11 / psy=1 / fade_compensate=0.00 / psy_rd=1.00:0.05 / mixed_ref=1 / me_range=32 / chroma_me=1 / trellis=2 / 8x8dct=1 / cqm=0 / deadzone=21,11 / fast_pskip=0 / chroma_qp_offset=-2 / threads=36 / lookahead_threads=4 / sliced_threads=0 / nr=0 / decimate=1 / interlaced=0 / bluray_compat=0 / constrained_intra=0 / fgo=0 / bframes=8 / b_pyramid=2 / b_adapt=2 / b_bias=0 / direct=3 / weightb=1 / open_gop=0 / weightp=2 / keyint=250 / keyint_min=23 / scenecut=40 / intra_refresh=0 / rc=crf / mbtree=0 / crf=18.0000 / qcomp=0.60 / qpmin=0:0:0 / qpmax=69:69:69 / qpstep=4 / ip_ratio=1.40 / pb_ratio=1.30 / aq=3:0.90
Language : Japanese
Default : Yes
Forced : No

Audio #1
ID : 2
Format : AC-3
Format/Info : Audio Coding 3
Mode extension : CM (complete main)
Format settings, Endianness : Big
Codec ID : A_AC3
Duration : 1h 51mn
Bit rate mode : Constant
Bit rate : 192 Kbps
Channel(s) : 2 channels
Channel positions : Front: L R
Sampling rate : 48.0 KHz
Bit depth : 16 bits
Compression mode : Lossy
Stream size : 153 MiB (3%)
Title : VO [GREEN TEA]
Language : Russian
Default : Yes
Forced : No

Audio #2
ID : 3
Format : DTS
Format/Info : Digital Theater Systems
Mode : 16
Format settings, Endianness : Big
Codec ID : A_DTS
Duration : 1h 51mn
Bit rate mode : Constant
Bit rate : 1 509 Kbps
Channel(s) : 6 channels
Channel positions : Front: L C R, Side: L R, LFE
Sampling rate : 48.0 KHz
Bit depth : 16 bits
Compression mode : Lossy
Stream size : 1.17 GiB (25%)
Language : Japanese
Default : No
Forced : No

Text
ID : 4
Format : UTF-8
Codec ID : S_TEXT/UTF8
Codec ID/Info : UTF-8 Plain Text
Title : fansub by SkewedS
Language : English
Default : No
Forced : No

Menu
00:00:00.000 : en:00:00:00.000
00:06:35.603 : en:00:06:35.603
00:15:14.663 : en:00:15:14.663
00:22:10.495 : en:00:22:10.495
00:37:33.251 : en:00:37:33.251
00:39:36.165 : en:00:39:36.165
00:51:21.912 : en:00:51:21.912
01:00:47.143 : en:01:00:47.143
01:10:52.373 : en:01:10:52.373
01:15:07.044 : en:01:15:07.044
01:21:32.971 : en:01:21:32.971
01:23:28.586 : en:01:23:28.586
01:30:28.172 : en:01:30:28.172
01:43:13.770 : en:01:43:13.770
01:47:19.057 : en:01:47:19.057


_________________
Проголосуй за трекер Открытый торрент трекер - RUS-MEDIA.ORG

Проголосуй Открытый торрент трекер - RUS-MEDIA.ORG


Вернуться к началу
 Профиль Отправить личное сообщение  
 
   Похожие торренты   Автор   Торрент   Размер 
В этой теме нет новых непрочитанных сообщений. Патерсон / Paterson [Драма, мелодрама, комедия, 2016] BDRip 720p, Dub [Лицензия]

salma3

213 | 37

8.48 ГБ

В этой теме нет новых непрочитанных сообщений. Моррис из Америки / Morris from America [драма, мелодрама, комедия, 2016] BDRip 720p, Mvo

salma3

44 | 26

3.56 ГБ

В этой теме нет новых непрочитанных сообщений. Вне правил / Rules Don't Apply [Драма, мелодрама, комедия, 2016] BDRip 720p, Mvo [iTunes]

salma3

97 | 69

6.11 ГБ

В этой теме нет новых непрочитанных сообщений. Наши любовники / Nuestros amantes (Мелодрама, драма, комедия, 2016) BDRip 720p | P, А

marya111

99 | 11

4.29 ГБ

В этой теме нет новых непрочитанных сообщений. Лa-Лa Лeнд / Lа Lа Lаnd [мюзикл, драма, мелодрама, комедия, 2016] BDRip 720p, Dub [iTunes]

salma3

105 | 61

8.11 ГБ

В этой теме нет новых непрочитанных сообщений. Синг Стрит / Sing Street [Драма, мелодрама, комедия, музыка, 2016] BDRip 720p, Avo

salma3

226 | 178

8.04 ГБ

В этой теме нет новых непрочитанных сообщений. Светская жизнь / Cafe Society [драма, мелодрама, комедия, 2016] BDRip 720p, Dub [Line]

salma3

65 | 46

4.02 ГБ


Начать новую тему Ответить на тему  [ 1 сообщение ] 




Для Мосгорсуда, Роскомнадзора и рекламодателей:: mosgorsud-torrent[собачка]yandex.ru
cron