Торрент файл
скачать торрент магнет ссылка Добавлен: 23 дек 2016, 14:02
Размер: 4.37 ГБ
Сидеров: 85
Личеров: 8
Статус: (salma3)
Автор

СообщениеДобавлено: 23 дек 2016, 14:02 

Не в сети
Супермодератор
Аватара пользователя
Дата регистрации:
15 фев 2012, 16:44
Возраст: 29
Спасибо: 7377 / 2147
Сообщения: 75902
Год выхода: 1997
Жанр: фантастика, боевик, комедия
Режиссер: Барри Зонненфельд

В ролях: Томми Ли Джонс, Уилл Смит, Линда Фиорентино, Винсент Д’Онофрио, Рип Торн, Тони Шэлуб, Шиван Фэллон, Майк Нассбаум, Джон Гриз, Серхио Кальдерон

О фильме: Они — самый большой секрет Земли. Они работают на неофициальное правительственное агентство, регулирующее деятельность инопланетян на Земле.

Они — это лучшая, последняя и единственная линия защиты Земли от отбросов вселенной. Их работа секретна, их оружие совершенно, им нет равных, они не оставляют следов. Они — это Люди в черном.



Выпущено: Columbia Pictures Corporation
Продолжительность: 01:37:59
Перевод: Дублированный

Файл
Кодек: x264
Качество: BDRip (источник: Blu-ray Disc)
Видео: 1920x1040 (16:9), 23.976 fps, 5494 kbps
Аудио #1: AC-3, 6 ch, 448 kbps (Rus)
Аудио #2: AC-3, 6 ch, 448 kbps (Eng)
Субтитры: Русские (форс,полные), Английские
Скачать: сэмпл

Общее
Уникальный идентификатор : 196245222127854809552395846667472300925 (0x93A374792B53EC29A905E70385756B7D)
Полное имя : Men.in.Black.1997.BDRip.1080p.Rus.Eng.mkv
Формат : Matroska
Версия формата : Version 2
Размер файла : 4,37 Гбайт
Продолжительность : 1 ч. 37 м.
Общий поток : 6391 Кбит/сек
Название фильма : Люди в черном / Men in Black (1997)
Дата кодирования : UTC 2012-05-07 10:21:14
Программа кодирования : mkvmerge v5.5.0 ('Healer') built on Apr 6 2012 21:43:24
Библиотека кодирования : libebml v1.2.3 + libmatroska v1.3.0

Видео
Идентификатор : 1
Формат : AVC
Формат/Информация : Advanced Video Codec
Профиль формата : High@L4.1
Параметр CABAC формата : Да
Параметр ReFrames формата : 4 кадра
Идентификатор кодека : V_MPEG4/ISO/AVC
Продолжительность : 1 ч. 37 м.
Битрейт : 5494 Кбит/сек
Ширина : 1920 пикселей
Высота : 1040 пикселей
Соотношение сторон : 16:9
Частота кадров : 23,976 кадра/сек
Цветовое пространство : YUV
Субдискретизация насыщенности : 4:2:0
Битовая глубина : 8 бит
Тип развёртки : Прогрессивная
Бит/(Пиксели*Кадры) : 0.115
Размер потока : 3,67 Гбайт (84%)
Заголовок : Release by AlexKa
Библиотека кодирования : x264 core 124 r2197 69a0443
Настройки программы : cabac=1 / ref=4 / deblock=1:0:0 / analyse=0x3:0x133 / me=umh / subme=10 / psy=1 / psy_rd=1.00:0.10 / mixed_ref=1 / me_range=32 / chroma_me=1 / trellis=2 / 8x8dct=1 / cqm=0 / deadzone=21,11 / fast_pskip=0 / chroma_qp_offset=-3 / threads=12 / sliced_threads=0 / nr=0 / decimate=0 / interlaced=0 / bluray_compat=0 / constrained_intra=0 / bframes=5 / b_pyramid=2 / b_adapt=2 / b_bias=0 / direct=3 / weightb=1 / open_gop=0 / weightp=2 / keyint=240 / keyint_min=23 / scenecut=40 / intra_refresh=0 / rc_lookahead=60 / rc=2pass / mbtree=1 / bitrate=5494 / ratetol=1.0 / qcomp=0.60 / qpmin=0 / qpmax=69 / qpstep=4 / cplxblur=20.0 / qblur=0.5 / ip_ratio=1.40 / aq=1:1.00
Язык : English

Аудио #1
Идентификатор : 2
Формат : AC-3
Формат/Информация : Audio Coding 3
Расширение режима : CM (complete main)
Идентификатор кодека : A_AC3
Продолжительность : 1 ч. 37 м.
Вид битрейта : Постоянный
Битрейт : 448 Кбит/сек
Каналы : 6 каналов
Расположение каналов : Front: L C R, Side: L R, LFE
Частота : 48,0 КГц
Битовая глубина : 16 бит
Метод сжатия : С потерями
Размер потока : 314 Мбайт (7%)
Заголовок : Rus
Язык : Russian

Аудио #2
Идентификатор : 3
Формат : AC-3
Формат/Информация : Audio Coding 3
Расширение режима : CM (complete main)
Идентификатор кодека : A_AC3
Продолжительность : 1 ч. 37 м.
Вид битрейта : Постоянный
Битрейт : 448 Кбит/сек
Каналы : 6 каналов
Расположение каналов : Front: L C R, Side: L R, LFE
Частота : 48,0 КГц
Битовая глубина : 16 бит
Метод сжатия : С потерями
Размер потока : 314 Мбайт (7%)
Заголовок : Eng
Язык : English

Текст #1
Идентификатор : 4
Формат : UTF-8
Идентификатор кодека : S_TEXT/UTF8
Идентификатор кодека/Информация : UTF-8 Plain Text
Заголовок : Rus forced
Язык : Russian

Текст #2
Идентификатор : 5
Формат : UTF-8
Идентификатор кодека : S_TEXT/UTF8
Идентификатор кодека/Информация : UTF-8 Plain Text
Заголовок : Rus
Язык : Russian

Текст #3
Идентификатор : 6
Формат : UTF-8
Идентификатор кодека : S_TEXT/UTF8
Идентификатор кодека/Информация : UTF-8 Plain Text
Заголовок : Eng
Язык : English

Меню
00:00:00.000 : :Chapter 01
00:09:46.419 : :Chapter 02
00:12:46.807 : :Chapter 03
00:18:12.341 : :Chapter 04
00:25:31.446 : :Chapter 05
00:29:14.544 : :Chapter 06
00:37:19.195 : :Chapter 07
00:43:18.554 : :Chapter 08
00:49:58.328 : :Chapter 09
00:54:29.391 : :Chapter 10
01:00:51.522 : :Chapter 11
01:06:24.689 : :Chapter 12
01:08:55.548 : :Chapter 13
01:14:56.909 : :Chapter 14
01:19:39.149 : :Chapter 15
01:29:49.634 : :Chapter 16


_________________
Проголосуй за трекер Открытый торрент трекер - RUS-MEDIA.ORG

Проголосуй Открытый торрент трекер - RUS-MEDIA.ORG


Вернуться к началу
 Профиль Отправить личное сообщение  
 
   Похожие торренты   Автор   Торрент   Размер 
В этой теме нет новых непрочитанных сообщений. Люди в черном / Men in Black [фантастика, боевик, комедия, 1997] BDRip-HEVC 1080p, Dub [Remastered]

salma3

41 | 9

6.97 ГБ

В этой теме нет новых непрочитанных сообщений. Люди в черном / Men in Black [фантастика, боевик, комедия, 1997] BDRemux 1080p, Dub [4K Remastered]

salma3

0 | 0

30.46 ГБ

В этой теме нет новых непрочитанных сообщений. Люди в черном / Men in Black [фантастика, боевик, комедия, 1997] BDRemux 1080p, Dub [4K] [Remastered]

salma3

12 | 5

30.46 ГБ

В этой теме нет новых непрочитанных сообщений. Люди в черном 3 / Men in Black III [Фантастика, боевик, комедия, 2012] BDRip-HEVC 1080p, Dub

salma3

0 | 0

8.94 ГБ

В этой теме нет новых непрочитанных сообщений. Люди в черном 2 / Men in Black II [Фантастика, боевик, комедия, 2002] BDRip-HEVC 1080p, Dub

salma3

0 | 0

6.1 ГБ

В этой теме нет новых непрочитанных сообщений. Люди в черном / Men in Black [Фантастика, боевик, комедия, 1997] UHD BDRemux 2160p, Dub [4K] [Remastered]

salma3

8 | 4

43.65 ГБ

В этой теме нет новых непрочитанных сообщений. Люди в чёрном 2 / Men in Black II [Фантастика, боевик, комедия, 2002] UHD BDRemux 2160p, Dub [4K]

salma3

7 | 3

44.51 ГБ


Начать новую тему Ответить на тему  [ 1 сообщение ] 




Для Мосгорсуда, Роскомнадзора и рекламодателей:: mosgorsud-torrent[собачка]yandex.ru
cron