Торрент файл
скачать торрент магнет ссылка Добавлен: 23 дек 2016, 11:34
Размер: 12.6 ГБ
Сидеров: 68
Личеров: 35
Статус: (salma3)
Автор

СообщениеДобавлено: 23 дек 2016, 11:34 

Не в сети
Супермодератор
Аватара пользователя
Дата регистрации:
15 фев 2012, 16:44
Возраст: 28
Спасибо: 7226 / 2147
Сообщения: 68270
Год выхода: 1989
Страна: США
Жанр: Боевик
Продолжительность: 02:05:18

Перевод: Профессиональный (многоголосый закадровый), авторский (одноголосый закадровый)
Субтитры: Русские, английские

Режиссер: Ридли Скотт

В ролях: Майкл Дуглас, Энди Гарсиа, Кэн Такакура, Кейт Кэпшоу, Юсаку Мацуда, Сигеру Кояма, Джон Спенсер, Гуц Исимацу, Юя Утида, Томисабуро Вакаяма, Луис Гузман

Описание: Двум нью-йоркским полицейским, в руки которых попадает безжалостный убийца, принадлежащий к японской мафии-якудза. Партнерам предстоит эскортировать преступника в Осаку, где его ждет суд. Но на японской земле злодею удается скрыться. Герои вместе с японским детективом бросаются на его поиски и оказываются втянутыми в кровавую войну гангстерских кланов.

Файл
Качество: BDRip 1080p
Формат: MKV
Видео кодек: H264
Аудио кодек: AC3
Видео: MPEG4 Video (H264), 1920x800, 23.976fps, 11.0 Mbps
Аудио #1: Русский, Dolby AC3, 48000 Hz, 6ch, 448 kbps - многоголосый, Киномания
Аудио #2: Русский, Dolby AC3, 48000 Hz, 6ch, 448 kbps - многоголосый, UPR
Аудио #3: Русский, Dolby AC3, 48000 Hz, 2ch, 192 kbps - многоголосый, Премьер-фильм
Аудио #4: Русский, Dolby AC3, 48000 Hz, 2ch, 192 kbps - многоголосый, НТВ
Аудио #5: Русский, Dolby AC3, 48000 Hz, 2ch, 192 kbps - одноголосый, Г. Либергал
Аудио #6: Русский, Dolby AC3, 48000 Hz, 2ch, 192 kbps - одноголосый, В. Горчаков
Аудио #7: Русский, Dolby AC3, 48000 Hz, 6ch, 448 kbps - одноголосый, М. Яроцкий
Аудио #8: Русский, Dolby AC3, 48000 Hz, 6ch, 448 kbps - одноголосый, А. Гаврилов
Аудио #9: Русский, Dolby AC3, 48000 Hz, 6ch, 448 kbps - одноголосый, Ю. Медведев
Аудио #10: Английский, Dolby AC3, 48000 Hz 6ch 448 kbps -
Формат субтитров: softsub (SRT)
Сэмпл


General
Unique ID : 190523100810661739820102577390680623365 (0x8F556A1C56116BE8BBE524537EB14905)
Complete name : E:Torrent 21989.Black.Rain.renta23.mkv
Format : Matroska
Format version : Version 4 / Version 2
File size : 12.6 GiB
Duration : 2h 5mn
Overall bit rate : 14.4 Mbps
Movie name : 1989 Черный дождь / renta23
Encoded date : UTC 2016-01-30 14:45:21
Writing application : mkvmerge v8.3.0 ('Over the Horizon') 64bit
Writing library : libebml v1.3.1 + libmatroska v1.4.2

Video
ID : 1
Format : AVC
Format/Info : Advanced Video Codec
Format profile : High@L4.1
Format settings, CABAC : Yes
Format settings, ReFrames : 5 frames
Codec ID : V_MPEG4/ISO/AVC
Duration : 2h 5mn
Bit rate : 11.0 Mbps
Width : 1 920 pixels
Height : 800 pixels
Display aspect ratio : 2.40:1
Frame rate mode : Constant
Frame rate : 23.976 (24000/1001) fps
Color space : YUV
Chroma subsampling : 4:2:0
Bit depth : 8 bits
Scan type : Progressive
Bits/(Pixel*Frame) : 0.299
Stream size : 9.62 GiB (76%)
Title : 1989 Черный дождь
Writing library : x264 core 146 r2538 121396c
Encoding settings : cabac=1 / ref=5 / deblock=1:-1:-1 / analyse=0x3:0x113 / me=umh / subme=11 / psy=1 / psy_rd=1.11:0.15 / mixed_ref=1 / me_range=24 / chroma_me=1 / trellis=2 / 8x8dct=1 / cqm=0 / deadzone=21,11 / fast_pskip=0 / chroma_qp_offset=-3 / threads=12 / lookahead_threads=3 / sliced_threads=0 / nr=0 / decimate=1 / interlaced=0 / bluray_compat=0 / constrained_intra=0 / bframes=10 / b_pyramid=2 / b_adapt=2 / b_bias=0 / direct=1 / weightb=1 / open_gop=0 / weightp=2 / keyint=250 / keyint_min=23 / scenecut=40 / intra_refresh=0 / rc=2pass / mbtree=0 / bitrate=11000 / ratetol=1.0 / qcomp=0.60 / qpmin=0 / qpmax=69 / qpstep=4 / cplxblur=20.0 / qblur=0.5 / ip_ratio=1.40 / pb_ratio=1.30 / aq=2:1.00
Language : English
Default : Yes
Forced : No

Audio #1
ID : 2
Format : AC-3
Format/Info : Audio Coding 3
Mode extension : CM (complete main)
Format settings, Endianness : Big
Codec ID : A_AC3
Duration : 2h 5mn
Bit rate mode : Constant
Bit rate : 448 Kbps
Channel(s) : 6 channels
Channel positions : Front: L C R, Side: L R, LFE
Sampling rate : 48.0 KHz
Frame rate : 31.250 fps (1536 spf)
Compression mode : Lossy
Stream size : 402 MiB (3%)
Title : Многоголосый, Киномания
Language : Russian
Default : Yes
Forced : No

Audio #2
ID : 3
Format : AC-3
Format/Info : Audio Coding 3
Mode extension : CM (complete main)
Format settings, Endianness : Big
Codec ID : A_AC3
Duration : 2h 5mn
Bit rate mode : Constant
Bit rate : 384 Kbps
Channel(s) : 6 channels
Channel positions : Front: L C R, Side: L R, LFE
Sampling rate : 48.0 KHz
Frame rate : 31.250 fps (1536 spf)
Compression mode : Lossy
Stream size : 344 MiB (3%)
Title : Многоголосый, UPR
Language : Russian
Default : No
Forced : No

Audio #3
ID : 4
Format : AC-3
Format/Info : Audio Coding 3
Mode extension : CM (complete main)
Format settings, Endianness : Big
Codec ID : A_AC3
Duration : 2h 5mn
Bit rate mode : Constant
Bit rate : 192 Kbps
Channel(s) : 2 channels
Channel positions : Front: L R
Sampling rate : 48.0 KHz
Frame rate : 31.250 fps (1536 spf)
Compression mode : Lossy
Stream size : 172 MiB (1%)
Title : Многоголосый, Премьер-фильм
Language : Russian
Default : No
Forced : No

Audio #4
ID : 5
Format : AC-3
Format/Info : Audio Coding 3
Mode extension : CM (complete main)
Format settings, Endianness : Big
Codec ID : A_AC3
Duration : 2h 5mn
Bit rate mode : Constant
Bit rate : 192 Kbps
Channel(s) : 2 channels
Channel positions : Front: L R
Sampling rate : 48.0 KHz
Frame rate : 31.250 fps (1536 spf)
Compression mode : Lossy
Stream size : 172 MiB (1%)
Title : Многоголосый, НТВ
Language : Russian
Default : No
Forced : No

Audio #5
ID : 6
Format : AC-3
Format/Info : Audio Coding 3
Mode extension : CM (complete main)
Format settings, Endianness : Big
Codec ID : A_AC3
Duration : 2h 5mn
Bit rate mode : Constant
Bit rate : 192 Kbps
Channel(s) : 2 channels
Channel positions : Front: L R
Sampling rate : 48.0 KHz
Frame rate : 31.250 fps (1536 spf)
Compression mode : Lossy
Stream size : 172 MiB (1%)
Title : Одноголосый, Г. Либергал
Language : Russian
Default : No
Forced : No

Audio #6
ID : 7
Format : AC-3
Format/Info : Audio Coding 3
Mode extension : CM (complete main)
Format settings, Endianness : Big
Codec ID : A_AC3
Duration : 2h 5mn
Bit rate mode : Constant
Bit rate : 192 Kbps
Channel(s) : 2 channels
Channel positions : Front: L R
Sampling rate : 48.0 KHz
Frame rate : 31.250 fps (1536 spf)
Compression mode : Lossy
Stream size : 172 MiB (1%)
Title : Одноголосый, В. Горчаков
Language : Russian
Default : No
Forced : No

Audio #7
ID : 8
Format : AC-3
Format/Info : Audio Coding 3
Mode extension : CM (complete main)
Format settings, Endianness : Big
Codec ID : A_AC3
Duration : 2h 5mn
Bit rate mode : Constant
Bit rate : 448 Kbps
Channel(s) : 6 channels
Channel positions : Front: L C R, Side: L R, LFE
Sampling rate : 48.0 KHz
Frame rate : 31.250 fps (1536 spf)
Compression mode : Lossy
Stream size : 402 MiB (3%)
Title : Одноголосый, М. Яроцкий
Language : Russian
Default : No
Forced : No

Audio #8
ID : 9
Format : AC-3
Format/Info : Audio Coding 3
Mode extension : CM (complete main)
Format settings, Endianness : Big
Codec ID : A_AC3
Duration : 2h 5mn
Bit rate mode : Constant
Bit rate : 448 Kbps
Channel(s) : 6 channels
Channel positions : Front: L C R, Side: L R, LFE
Sampling rate : 48.0 KHz
Frame rate : 31.250 fps (1536 spf)
Compression mode : Lossy
Stream size : 402 MiB (3%)
Title : Одноголосый, А. Гаврилов
Language : Russian
Default : No
Forced : No

Audio #9
ID : 10
Format : AC-3
Format/Info : Audio Coding 3
Mode extension : CM (complete main)
Format settings, Endianness : Big
Codec ID : A_AC3
Duration : 2h 5mn
Bit rate mode : Constant
Bit rate : 448 Kbps
Channel(s) : 6 channels
Channel positions : Front: L C R, Side: L R, LFE
Sampling rate : 48.0 KHz
Frame rate : 31.250 fps (1536 spf)
Compression mode : Lossy
Stream size : 402 MiB (3%)
Title : Одноголосый, Ю. Медведев
Language : Russian
Default : No
Forced : No

Audio #10
ID : 11
Format : AC-3
Format/Info : Audio Coding 3
Mode extension : CM (complete main)
Format settings, Endianness : Big
Codec ID : A_AC3
Duration : 2h 5mn
Bit rate mode : Constant
Bit rate : 448 Kbps
Channel(s) : 6 channels
Channel positions : Front: L C R, Side: L R, LFE
Sampling rate : 48.0 KHz
Frame rate : 31.250 fps (1536 spf)
Compression mode : Lossy
Stream size : 402 MiB (3%)
Language : English
Default : No
Forced : No

Text #1
ID : 12
Format : UTF-8
Codec ID : S_TEXT/UTF8
Codec ID/Info : UTF-8 Plain Text
Duration : 2h 0mn
Bit rate : 69 bps
Count of elements : 1106
Stream size : 61.4 KiB (0%)
Language : Russian
Default : No
Forced : No

Text #2
ID : 13
Format : UTF-8
Codec ID : S_TEXT/UTF8
Codec ID/Info : UTF-8 Plain Text
Duration : 1h 58mn
Bit rate : 40 bps
Count of elements : 1095
Stream size : 35.3 KiB (0%)
Language : English
Default : No
Forced : No

Menu
00:00:00.000 : en:Opening Credits
00:02:45.832 : en:Nice Bike
00:05:06.306 : en:Internal Affairs
00:11:11.295 : en:Table Manners
00:14:44.174 : en:Freeze
00:18:08.087 : en:My Collar, My Case
00:20:48.580 : en:Dental Work
00:23:09.846 : en:Local Heat
00:31:24.299 : en:Observers
00:46:03.010 : en:Money to Burn
00:49:09.029 : en:Ties
00:53:48.642 : en:"What'd I Say"
00:55:31.119 : en:Foreigner
00:57:25.817 : en:The Last Bullfught
01:02:02.093 : en:Just You and Me
01:07:33.424 : en:Sequins
01:12:05.362 : en:Gray Areas
01:15:14.426 : en:The Switch
01:19:33.810 : en:Missing Plate
01:23:30.922 : en:Hot Lead
01:26:43.698 : en:Suspended
01:32:43.349 : en:On the Edge
01:36:35.372 : en:Black Rain
01:40:33.026 : en:Going for It
01:47:11.258 : en:The Yakuza Code
01:51:30.308 : en:Payback
01:57:21.451 : en:Honor
02:01:32.785 : en:End Credits




_________________
Проголосуй за трекер Открытый торрент трекер - RUS-MEDIA.ORG

Проголосуй Открытый торрент трекер - RUS-MEDIA.ORG


Вернуться к началу
 Профиль Отправить личное сообщение  
 
   Похожие торренты   Автор   Торрент   Размер 
В этой теме нет новых непрочитанных сообщений. Черный дождь / Black Rain [боевик, триллер, драма, 1989] Blu-ray 1080p, Mvo

salma3

0 | 0

28.63 ГБ

В этой теме нет новых непрочитанных сообщений. Черный дождь / Black Rain [боевик, триллер, драма, 1989] BDRip 720p, Mvo

salma3

0 | 0

7.75 ГБ

В этой теме нет новых непрочитанных сообщений. Черный дождь / Black Rain [Боевик, триллер, драма, криминал, 1989] BDRip 720p, Mvo

salma3

15 | 12

11.22 ГБ

В этой теме нет новых непрочитанных сообщений. Чёрный дождь / Black Rain [боевик, триллер, криминал, 1989] HDRip, Mvo

salma3

377 | 18

1.45 ГБ

В этой теме нет новых непрочитанных сообщений. Теплый летний дождь / Warm Summer Rain [драма, мелодрама, 1989] HDTV 1080i, Dvo [НТВ+]

salma3

19 | 11

3.63 ГБ

В этой теме нет новых непрочитанных сообщений. Кто остановит дождь / Who'll Stop the Rain [Боевик, триллер, драма, криминал, военный, 1978] HDTVRip, Dvo

salma3

70 | 9

2.18 ГБ

В этой теме нет новых непрочитанных сообщений. Черный динамит / Black Dynamite боевик, комедия, 2009] BDRip-AVC, Avo

salma3

3 | 2

1.44 ГБ


Начать новую тему Ответить на тему  [ 1 сообщение ] 




Для Мосгорсуда, Роскомнадзора и рекламодателей:: mosgorsud-torrent[собачка]yandex.ru
cron