Торрент файл
скачать торрент магнет ссылка Добавлен: 23 дек 2016, 10:24
Размер: 8.28 ГБ
Сидеров: 48
Личеров: 41
Статус: (salma3)
Автор

СообщениеДобавлено: 23 дек 2016, 10:24 

Не в сети
Супермодератор
Аватара пользователя
Дата регистрации:
15 фев 2012, 16:44
Возраст: 29
Спасибо: 7328 / 2147
Сообщения: 73276
Жанр: Триллер, Криминал, Детектив
Режиссер: Майкл Кейтон-Джоунс / Michael Caton-Jones

В ролях: Шэрон Стоун, Дэвид Морисси, Шарлотта Рэмплинг, Дэвид Тьюлис, Хью Дэнси, Стэн Коллимор, Нил Мэскелл, Жан Чаппель, Теренс Харви, Эллен Томас, Марк Сэнгстер, Тим Беррингтон, Индира Варма, Хиткот Уильямс, Флора Монтгомери, Ката Добо, Айэйн Робертсон

Описание:
На писательницу Кэтрин Трэммел вновь падает подозрение в причастности к преступлению. Скотланд-Ярд отряжает обращается к доктору Майклу Глассу за помощью в профессиональном заключении о состоянии психического здоровья Кэтрин. Но Гласс, как когда-то детектив Каррен, попадает под чары роковой женщины.



Страна: Германия, USA, Великобритания, Испания
Год выпуска: 2006
Продолжительность: 01:54:00
Перевод: Профессиональный (дублированный)
Cубтитры: русские
Оригинальная аудиодорожка: английский

Тип релиза: BDRip 1080p
Контейнер: MKV
Видео: 1920x798 (2.40:1); AVC MPEG-4; ~ 9308 Кбит/сек; 23,976 fps
Аудио 1: Russian AC3, 448 kbps, 48.0 kHz, 6ch
Аудио 2: English AC3, 640 kbps, 48.0 kHz, 6ch
Формат субтитров: softsub (SRT)



- Режиссером картины мог стать Дэвид Кроненберг, однако продюсер Марио Кассар отстранил Дэвида от участия в проекте, так как режиссер хотел привести с собой большую часть своей съемочной бригады. После этого пост режиссера был предложен Джону МакТирнану.
- Проект получил зеленый свет еще несколько лет назад, но постоянно откладывался по тем или иным причинам. Сама Шарон также приложила к этому руку, забраковав ряд актеров, предлагавшихся на роль психоаналитика Гласа, включая любимчика Марио Кассара – Бенджамина Братта.
- Роберт Дауни мл. был отвергнут продюсерами после скандала, связанного с наркотическими пристрастиями актера. Курт Рассел отказался от участия в проекте, боясь обнажиться перед камерами. Пирс Броснан сослался на неприятные моменты в сценарии. Также списке претендентов на главную мужскую роль в фильме присутствовали Брюс Гринвуд, Харрисон Форд, Вигго Мортенсен, Бенисио Дель Торо, Аарон Экхарт и упомянутый ранее Бенджамин Братт.
- Шарон Стоун хотела заполучить в проект Катрин Денев. В итоге эта роль досталась Шарлотте Рэмплинг.
- Капризная Шарон заявила о своем выходе из проекта в тот момент, когда все было готово к началу съемок. Продюсеры принялись в срочном порядке искать замену – рассматривались кандидатуры Деми Мур и Эшли Джадд.
- Действие картины перенеслось из Нью-Йорка в Лондон.
- Работу над саундтреком должен был возглавить Джерри Голдсмит. К сожалению, незадолго до запуска проекта прославленный композитор скончался.
- Постановщик оригинальной картины Пол Верховен мог стать и режиссером сиквела, но предпочел поработать в родных краях – в Голландии.
- Фильм пребывал на стадии препродакшена еще в 2000 и 2001 годах. Все это время проект сопровождали две проблемы - отсутствие режиссера и исполнителя главной мужской роли. Измученная Стоун подала судебный иск на продюсеров картины (Эндрю Вайна и Марио Кассар) в размере 100 миллионов долларов за моральный ущерб и отсутствие новых предложений по работе ввиду «занятости» актрисы в «полумертвом» проекте. В 2004 году, к удивлению многих, Шарон отклонила свой иск и согласилась возобновить работу над картиной с теми же продюсерами.
General
Unique ID : 196536071966447648925058288925389963566 (0x93DB787A3D9418BB8C49335EAC89412E)
Complete name : E:HDTVBasic.Instinct.2.2006.Blu-RayRip.1080p.AC3.x264-CHD.mkv
Format : Matroska
Format version : Version 1
File size : 8.28 GiB
Duration : 1h 54mn
Overall bit rate : 10.4 Mbps
Encoded date : UTC 2011-11-25 15:27:41
Writing application : mkvmerge v2.4.2 ('Oh My God') built on Jan 18 2009 17:30:28
Writing library : libebml v0.7.7 + libmatroska v0.8.1
Video #2
ID : 2
Format : AVC
Format/Info : Advanced Video Codec
Format profile : High@L4.1
Format settings, CABAC : Yes
Format settings, ReFrames : 5 frames
Codec ID : V_MPEG4/ISO/AVC
Duration : 1h 54mn
Bit rate : 9 308 Kbps
Width : 1 920 pixels
Height : 798 pixels
Display aspect ratio : 2.40:1
Frame rate : 23.976 fps
Color space : YUV
Chroma subsampling : 4:2:0
Bit depth : 8 bits
Scan type : Progressive
Bits/(Pixel*Frame) : 0.253
Stream size : 7.25 GiB (88%)
Writing library : x264 core 115 r2008 4c552d8
Encoding settings : cabac=1 / ref=5 / deblock=1:-3:-3 / analyse=0x3:0x113 / me=umh / subme=10 / psy=1 / psy_rd=1.10:0.15 / mixed_ref=1 / me_range=32 / chroma_me=1 / trellis=2 / 8x8dct=1 / cqm=2 / deadzone=21,11 / fast_pskip=0 / chroma_qp_offset=-2 / threads=12 / sliced_threads=0 / nr=0 / decimate=1 / interlaced=0 / bluray_compat=0 / constrained_intra=0 / bframes=6 / b_pyramid=2 / b_adapt=2 / b_bias=0 / direct=3 / weightb=1 / open_gop=0 / weightp=2 / keyint=250 / keyint_min=23 / scenecut=40 / intra_refresh=0 / rc_lookahead=60 / rc=2pass / mbtree=1 / bitrate=9308 / ratetol=1.0 / qcomp=0.60 / qpmin=1 / qpmax=63 / qpstep=4 / cplxblur=20.0 / qblur=0.5 / vbv_maxrate=40000 / vbv_bufsize=30000 / nal_hrd=none / ip_ratio=1.40 / aq=1:0.80
Language : English
Audio #1
ID : 1
Format : AC-3
Format/Info : Audio Coding 3
Mode extension : CM (complete main)
Codec ID : A_AC3
Duration : 1h 54mn
Bit rate mode : Constant
Bit rate : 448 Kbps
Channel(s) : 6 channels
Channel positions : Front: L C R, Side: L R, LFE
Sampling rate : 48.0 KHz
Bit depth : 16 bits
Compression mode : Lossy
Stream size : 365 MiB (4%)
Title : Äóáëÿæ (R5)
Language : Russian
Audio #3
ID : 3
Format : AC-3
Format/Info : Audio Coding 3
Mode extension : CM (complete main)
Codec ID : A_AC3
Duration : 1h 54mn
Bit rate mode : Constant
Bit rate : 640 Kbps
Channel(s) : 6 channels
Channel positions : Front: L C R, Side: L R, LFE
Sampling rate : 48.0 KHz
Bit depth : 16 bits
Compression mode : Lossy
Stream size : 522 MiB (6%)
Language : English
Text #4
ID : 4
Format : UTF-8
Codec ID : S_TEXT/UTF8
Codec ID/Info : UTF-8 Plain Text
Language : English
Text #5
ID : 5
Format : UTF-8
Codec ID : S_TEXT/UTF8
Codec ID/Info : UTF-8 Plain Text
Language : Russian


_________________
Проголосуй за трекер Открытый торрент трекер - RUS-MEDIA.ORG

Проголосуй Открытый торрент трекер - RUS-MEDIA.ORG


Вернуться к началу
 Профиль Отправить личное сообщение  
 
   Похожие торренты   Автор   Торрент   Размер 
В этой теме нет новых непрочитанных сообщений. Основной инстинкт 2: Жажда риска / Basic Instinct 2 [триллер, драма, детектив, 2006] BDRip 720p, Dub

salma3

142 | 35

3.42 ГБ

В этой теме нет новых непрочитанных сообщений. Основной инстинкт / Basic Instinct [триллер, драма, детектив, 1992] BDRip 1080p, Mvo

salma3

15 | 9

14.45 ГБ

В этой теме нет новых непрочитанных сообщений. Основной инстинкт / Basic Instinct [триллер, драма, детектив, 1992] HDRip-AVC, Dvo

salma3

12 | 0

745.76 МБ

В этой теме нет новых непрочитанных сообщений. Francesca Le - Основной инстинкт - официальная пародия / Official Basic Instinct Parody (2011) DVDRip

salma3

32 | 0

248.13 МБ

В этой теме нет новых непрочитанных сообщений. Brandy Aniston - Основной инстинкт - официальная пародия / Official Basic Instinct Parody (2011) DVDRip

salma3

2 | 0

228.58 МБ

В этой теме нет новых непрочитанных сообщений. Фатальный инстинкт / Fatal Instinct [комедия, триллер, криминал, 1993] BDRip, Mvo

salma3

1 | 1

1.46 ГБ

В этой теме нет новых непрочитанных сообщений. Инстинкт / Instinct [Драма, триллер, 1999] WEB-DL 1080p, Dvo

salma3

0 | 0

9.13 ГБ


Начать новую тему Ответить на тему  [ 1 сообщение ] 




Для Мосгорсуда, Роскомнадзора и рекламодателей:: mosgorsud-torrent[собачка]yandex.ru
cron