Торрент файл
скачать торрент магнет ссылка Добавлен: 20 дек 2016, 12:38
Размер: 1.46 ГБ
Сидеров: 53
Личеров: 15
Статус: (salma3)
Автор

СообщениеДобавлено: 20 дек 2016, 12:38 

Не в сети
Супермодератор
Аватара пользователя
Дата регистрации:
15 фев 2012, 16:44
Возраст: 28
Спасибо: 6468 / 2129
Сообщения: 40780
Страна: США, Германия (ФРГ)
Жанр: ужасы, триллер, мелодрама, криминал, детектив
Год выпуска: 1983
Продолжительность: 01:24:00
Перевод: Авторский (одноголосый закадровый) Петр Карцев
Cубтитры: нет
Оригинальная аудиодорожка: английский
Режиссер: Ulli Lommel / Улли Ломмель

В ролях: Сюзанна Лав, Роберт Уокер мл., Джефф Уинчестер, Эми Робинсон, Николас Лав, Майкл Эванс, Улли Ломмель, Джуди Уолкер...

Описание: Занятый в важном архитектурном проекте американский инженер встречает в Лондоне молодую женщину по имени Оливия, с которой у него завязывается короткий роман. Несколько лет спустя он снова встречает её, на этот раз в США, однако она делает вид, что не знает его, и что самое удивительное — у неё полностью исчез английский акцент.
Доп. информация: За синхронизацию перевода большое спасибо Нордер.

Автор рипа: Sem-te
Релиз от:

Исходник: Olivia.1983.1080p.BluRay.X264-iNVANDRAREN
Качество видео: HDRip
Формат видео: AVI
Видео: 720x384 (1.88:1), 23.976 fps, XviD build 73 ~2096 kbps avg, 0.32 bit/pixel
Аудио 1: 48.0 kHz, AC3 Dolby Digital, 2/0 (L,R) ch, ~192 kbps
Аудио 2: 48.0 kHz, AC3 Dolby Digital, 2/0 (L,R) ch, ~192 kbps
Размер: 1499.11 Mb (1/3 DVD-R)
General
Format : AVI
Format/Info : Audio Video Interleave
File size : 1.46 GiB
Duration : 1h 23mn
Overall bit rate : 2 495 Kbps
Writing application : VirtualDubMod 1.5.10.3 | www.virtualdub-fr.org || (build 2550/release)
Writing library : VirtualDubMod build 2550/release
Video
ID : 0
Format : MPEG-4 Visual
Format profile : Advanced Simple@L5
Format settings, BVOP : 1
Format settings, QPel : No
Format settings, GMC : No warppoints
Format settings, Matrix : Custom
Codec ID : XVID
Codec ID/Hint : XviD
Duration : 1h 23mn
Bit rate : 2 097 Kbps
Width : 720 pixels
Height : 384 pixels
Display aspect ratio : 1.85:1
Frame rate : 23.976 fps
Color space : YUV
Chroma subsampling : 4:2:0
Bit depth : 8 bits
Scan type : Progressive
Compression mode : Lossy
Bits/(Pixel*Frame) : 0.316
Stream size : 1.23 GiB (84%)
Writing library : XviD 73
Audio #1
ID : 1
Format : AC-3
Format/Info : Audio Coding 3
Mode extension : CM (complete main)
Format settings, Endianness : Big
Codec ID : 2000
Duration : 1h 23mn
Bit rate mode : Constant
Bit rate : 192 Kbps
Channel(s) : 2 channels
Channel positions : Front: L R
Sampling rate : 48.0 KHz
Bit depth : 16 bits
Compression mode : Lossy
Stream size : 115 MiB (8%)
Alignment : Split accross interleaves
Interleave, duration : 42 ms (1.00 video frame)
Interleave, preload duration : 500 ms
Audio #2
ID : 2
Format : AC-3
Format/Info : Audio Coding 3
Mode extension : CM (complete main)
Format settings, Endianness : Big
Codec ID : 2000
Duration : 1h 23mn
Bit rate mode : Constant
Bit rate : 192 Kbps
Channel(s) : 2 channels
Channel positions : Front: L R
Sampling rate : 48.0 KHz
Bit depth : 16 bits
Compression mode : Lossy
Stream size : 115 MiB (8%)
Alignment : Split accross interleaves
Interleave, duration : 42 ms (1.00 video frame)
Interleave, preload duration : 500 ms



_________________
Проголосуй за трекер Открытый торрент трекер - RUS-MEDIA.ORG

Проголосуй Открытый торрент трекер - RUS-MEDIA.ORG



реклама партнёра


Вернуться к началу
 Профиль Отправить личное сообщение  
 
   Похожие торренты   Автор   Торрент   Размер 
В этой теме нет новых непрочитанных сообщений. Двойной просчет / Double Jeopardy [триллер, драма, криминал, детектив, 1999] WEB-DL 720p, Dvo+Avo+Sub

salma3

22 | 2

3.82 ГБ

В этой теме нет новых непрочитанных сообщений. Двойной просчет / Double Jeopardy [триллер, криминал, детектив, 1999] WEBRip 1080p, Dvo+Avo+Sub

salma3

27 | 4

8.49 ГБ

В этой теме нет новых непрочитанных сообщений. Двойной просчет / Double Jeopardy [Триллер, Драма, Детектив, Криминал, 1999] WEBRip-AVC, Dub

salma3

5 | 90

4.7 ГБ

В этой теме нет новых непрочитанных сообщений. Двойной просчет / Double Jeopardy [Триллер, 1999] DVD-9, Mvo+Dvo+Avo

salma3

6 | 3

6.84 ГБ

В этой теме нет новых непрочитанных сообщений. Двойной ночной сеанс / Late Night Double Feature [ужасы, триллер, комедия, 2016] WEB-DLRip, Mvo

salma3

244 | 63

1.36 ГБ

В этой теме нет новых непрочитанных сообщений. Двойной удар / Double Impact [боевик, триллер, драма, криминал, 1991] BDRip, Avo [Яроцкий]

salma3

51 | 6

1.46 ГБ

В этой теме нет новых непрочитанных сообщений. Двойной ночной сеанс / Late Night Double Feature [ужасы, триллер, комедия, 2016] WEB-DLRip 720p, Mvo

salma3

35 | 11

2.77 ГБ


Начать новую тему Ответить на тему  [ 1 сообщение ] 




Для Мосгорсуда, Роскомнадзора и рекламодателей:: mosgorsud-torrent[собачка]yandex.ru