Торрент файл
скачать торрент магнет ссылка Добавлен: 19 дек 2016, 22:00
Размер: 15.69 ГБ
Сидеров: 30
Личеров: 13
Статус: (salma3)
Автор

СообщениеДобавлено: 19 дек 2016, 22:00 

Не в сети
Супермодератор
Аватара пользователя
Дата регистрации:
15 фев 2012, 16:44
Возраст: 28
Спасибо: 6925 / 2147
Сообщения: 52894
Год выхода: 1987
Жанр: ужасы, триллер, драма, криминал
Режиссер: Джозеф Рубин

В ролях: Терри О'Куинн, Джилл Шелен, Шелли Хэк, Стивен Шеллен, Чарлз Ланьер

О фильме: Джерри Блейк воплощает в себе все мечты матерей-одиночек. Он красив, умен, добр и безумно любит детей. Каждая женщина хочет опереться на его сильное плечо и позволить ему управлять собственной жизнью. Несмотря на огромный перечень достоинств, Джерри представляет смертельную опасность для окружающих. Он уже долгое время мечется в поисках идеальной американской семьи. И каждый раз, когда его постигает разочарование, он безжалостно убивает всех своих домочадцев. После одного из таких случаев Блейк переезжает в другой город, где находит себе очередных подопытных. Пока в новом доме царит спокойствие, но его падчерица оказывается слишком любопытной…



Страна: Великобритания, США, Канада
Продолжительность: 01:28:52
Перевод 1: Профессиональный (двухголосый закадровый) НТВ
Перевод 2: Профессиональный (двухголосый закадровый) Екатеринбург АРТ
Перевод 3: Авторский (одноголосый закадровый) Алексей Михалёв
Перевод 4: Любительский (многоголосый закадровый) BaibaKo
Оригинальная аудиодорожка: есть (английская)
Cубтитры: есть (английские)

Файл
Качество: BDRemux 1080р
Видео: MPEG-4 AVC Video, 1920x1080, 16:9, 22998 kbps, 23,976 fps
Аудио 1: Русский / AC3 / 2.0 / 48 kHz / 192 kbps (DVO) НТВ
Аудио 2: Русский / AC3 / 2.0 / 48 kHz / 192 kbps (DVO) Екатеринбург АРТ
Аудио 3: Русский / FLAC / 2.0 / 48 kHz / 692 kbps (AVO) А.Михалёв
Аудио 4: Русский / AC3 / 2.0 / 48 kHz / 192 kbps (MVO) BaibaKo
Аудио 5: Английский / FLAC / 2.0 / 48 kHz / 1030 kbps

Общее
Уникальный идентификатор : 218922680268653779855238917338008952886 (0xA4B2F97BAEA7A8AC83AD0EF2A390A036)
Полное имя : Отчим (1987) BDRemux 1080p.mkv
Формат : Matroska
Версия формата : Version 2
Размер файла : 15,7 Гбайт
Продолжительность : 1 ч. 29 м.
Режим общего битрейта : Переменный
Общий поток : 25,2 Мбит/сек
Дата кодирования : UTC 2016-05-30 20:34:57
Программа кодирования : mkvmerge v4.0.0 ('The Stars were mine') сборка от Jun 6 2010 16:18:42
Библиотека кодирования : libebml v1.0.0 + libmatroska v1.0.0

Видео
Идентификатор : 1
Формат : AVC
Формат/Информация : Advanced Video Codec
Профиль формата : High@L4.1
Параметр CABAC формата : Да
Параметр ReFrames формата : 4 кадра
Идентификатор кодека : V_MPEG4/ISO/AVC
Продолжительность : 1 ч. 29 м.
Вид битрейта : Переменный
Максимальный битрейт : 32,0 Мбит/сек
Ширина : 1920 пикселей
Высота : 1080 пикселей
Соотношение сторон : 16:9
Режим частоты кадров : Постоянный
Частота кадров : 23,976 (24000/1001) кадра/сек
Цветовое пространство : YUV
Субдискретизация насыщенности : 4:2:0
Битовая глубина : 8 бит
Тип развёртки : Прогрессивная
Default : Нет
Forced : Нет
Цветовой диапазон : Limited
Основные цвета : BT.709
Характеристики трансфера : BT.709
Коэффициенты матрицы : BT.709

Аудио #1
Идентификатор : 2
Формат : AC-3
Формат/Информация : Audio Coding 3
Расширение режима : CM (complete main)
Параметр Endianness формата : Big
Идентификатор кодека : A_AC3
Продолжительность : 1 ч. 29 м.
Вид битрейта : Постоянный
Битрейт : 192 Кбит/сек
Каналы : 2 канала
Расположение каналов : Front: L R
Частота : 48,0 КГц
Частота кадров : 31,250 кадров/сек (1536 spf)
Метод сжатия : С потерями
Размер потока : 122 Мбайт (1%)
Заголовок : Профессиональный (двухголосый закадровый) НТВ
Язык : Russian
Default : Нет
Forced : Нет

Аудио #2
Идентификатор : 3
Формат : AC-3
Формат/Информация : Audio Coding 3
Расширение режима : CM (complete main)
Параметр Endianness формата : Big
Идентификатор кодека : A_AC3
Продолжительность : 1 ч. 29 м.
Вид битрейта : Постоянный
Битрейт : 192 Кбит/сек
Каналы : 2 канала
Расположение каналов : Front: L R
Частота : 48,0 КГц
Частота кадров : 31,250 кадров/сек (1536 spf)
Метод сжатия : С потерями
Размер потока : 122 Мбайт (1%)
Заголовок : Профессиональный (двухголосый закадровый) Екатеринбург АРТ
Язык : Russian
Default : Нет
Forced : Нет

Аудио #3
Идентификатор : 4
Формат : FLAC
Формат/Информация : Free Lossless Audio Codec
Идентификатор кодека : A_FLAC
Продолжительность : 1 ч. 29 м.
Вид битрейта : Переменный
Каналы : 2 канала
Расположение каналов : Front: L R
Частота : 48,0 КГц
Битовая глубина : 24 бит
Заголовок : Авторский (одноголосый закадровый) Алексей Михалев
Библиотека кодирования : libFLAC 1.2.1 (UTC 2007-09-17)
Язык : Russian
Default : Нет
Forced : Нет

Аудио #4
Идентификатор : 5
Формат : AC-3
Формат/Информация : Audio Coding 3
Расширение режима : CM (complete main)
Параметр Endianness формата : Big
Идентификатор кодека : A_AC3
Продолжительность : 1 ч. 29 м.
Вид битрейта : Постоянный
Битрейт : 192 Кбит/сек
Каналы : 2 канала
Расположение каналов : Front: L R
Частота : 48,0 КГц
Частота кадров : 31,250 кадров/сек (1536 spf)
Метод сжатия : С потерями
Размер потока : 122 Мбайт (1%)
Заголовок : Любительский (многоголосый закадровый) BaibaKo
Язык : Russian
Default : Нет
Forced : Нет

Аудио #5
Идентификатор : 6
Формат : FLAC
Формат/Информация : Free Lossless Audio Codec
Идентификатор кодека : A_FLAC
Продолжительность : 1 ч. 29 м.
Вид битрейта : Переменный
Каналы : 2 канала
Расположение каналов : Front: L R
Частота : 48,0 КГц
Битовая глубина : 24 бит
Библиотека кодирования : libFLAC 1.2.1 (UTC 2007-09-17)
Язык : English
Default : Нет
Forced : Нет

Текст
Идентификатор : 7
Формат : UTF-8
Идентификатор кодека : S_TEXT/UTF8
Идентификатор кодека/Информация : UTF-8 Plain Text
Язык : English
Default : Нет
Forced : Нет


_________________
Проголосуй за трекер Открытый торрент трекер - RUS-MEDIA.ORG

Проголосуй Открытый торрент трекер - RUS-MEDIA.ORG



реклама партнёра


Вернуться к началу
 Профиль Отправить личное сообщение  
 
   Похожие торренты   Автор   Торрент   Размер 
В этой теме нет новых непрочитанных сообщений. Отчим 2 / Stepfather II [ужасы, триллер, 1989] DVDRip, Avo

salma3

18 | 5

1.46 ГБ

В этой теме нет новых непрочитанных сообщений. Уличный парень / Street Smart [триллер, драма, криминал, 1987] BDRemux 1080р, Dvo

salma3

6 | 2

21.45 ГБ

В этой теме нет новых непрочитанных сообщений. Фотография Джойи / Бред / Le foto di Gioia / Delirium [ужасы, триллер, детектив, 1987] BDRemux 1080р, Avo

salma3

13 | 7

19.31 ГБ

В этой теме нет новых непрочитанных сообщений. Бойня / Slaughterhouse [ужасы, комедия, 1987] BDRemux 1080р, Avo

salma3

1 | 11

23.43 ГБ

В этой теме нет новых непрочитанных сообщений. Врата / The Gate [ужасы, фэнтези, 1987] BDRemux 1080р, Dvo

salma3

8 | 13

16.68 ГБ

В этой теме нет новых непрочитанных сообщений. Изощренный кошмар / Twisted Nightmare [ужасы, 1987] BDRemux 1080р, Avo

salma3

1 | 21

19.71 ГБ

В этой теме нет новых непрочитанных сообщений. Кровная ярость / Blood Rage [ужасы, 1987] BDRemux 1080р, Avo

salma3

1 | 1

18.23 ГБ


Начать новую тему Ответить на тему  [ 1 сообщение ] 




Для Мосгорсуда, Роскомнадзора и рекламодателей:: mosgorsud-torrent[собачка]yandex.ru
cron