Торрент файл
скачать торрент магнет ссылка Добавлен: 18 дек 2016, 15:49
Размер: 3.97 ГБ
Сидеров: 30
Личеров: 5
Статус: (salma3)
Автор

СообщениеДобавлено: 18 дек 2016, 15:49 

Не в сети
Супермодератор
Аватара пользователя
Дата регистрации:
15 фев 2012, 16:44
Возраст: 28
Спасибо: 6917 / 2147
Сообщения: 52680
Год выхода: 1977
Жанр: драма, мелодрама, комедия
Режиссер: Херберт Росс / Herbert Ross

В ролях: Ричард Дрейфусс, Марша Мейсон, Куинн Каммингс, Пол Бенедикт, Барбара Роудс, Тереза Меррит, Майкл Шоун, Патриция Пирси, Джин Касл, Дэниэл Леванс

О фильме:
История о сложных и порой комичных отношениях между одинокой женщиной Полой МакФадден и невезучим актером Эллиотом Гарфилдом. Поначалу между ними нет ничего общего кроме вынужденного соседства. Но даже между двумя такими не похожими друг на друга людьми может возникнуть настоящий любовный роман...

По произведению Нейл Симонс.



Страна: США
Студия: Warner Bros., Metro-Goldwyn-Mayer (MGM), Rastar Pictures
Продолжительность: 01:50:39.328
Перевод: Профессиональный (многоголосый закадровый)

Файл
Кодек: h.264
Качество: BDRip 720p Исходник Blu Ray Warner Archive Collection
Видео: 1280x720 (16:9), 23.976 fps, AVC, ~4264 Kbps, 0.193 bits/pixel
Звук:
Русский, 48.0 KHz, AC3, 2 ch, 160 Kbps
Английский, 48.0 KHz, AC3, 2 ch, 640 Kbps
Субтитры: Английские, PGS
Общее
Уникальный идентификатор : 249707096335089002422756235077169444281 (0xBBDBD660E150D01FB1A1A0D40277F5B9)
Полное имя : D:FILMSDo_svidanya_dorogaya.1977.BDRip720p.mkv
Формат : Matroska
Версия формата : Version 4 / Version 2
Размер файла : 3,97 Гбайт
Продолжительность : 1 ч. 50 м.
Общий поток : 5134 Кбит/сек
Дата кодирования : UTC 2016-12-11 23:08:44
Программа кодирования : mkvmerge v9.6.0 ('Slave To Your Mind') 64bit
Библиотека кодирования : libebml v1.3.4 + libmatroska v1.4.5

Видео
Идентификатор : 1
Формат : AVC
Формат/Информация : Advanced Video Codec
Профиль формата : High@L4.1
Параметр CABAC формата : Да
Параметр ReFrames формата : 9 кадров
Идентификатор кодека : V_MPEG4/ISO/AVC
Продолжительность : 1 ч. 50 м.
Битрейт : 4264 Кбит/сек
Ширина : 1280 пикселей
Высота : 720 пикселей
Соотношение сторон : 16:9
Режим частоты кадров : Постоянный
Частота кадров : 23,976 (24000/1001) кадра/сек
Цветовое пространство : YUV
Субдискретизация насыщенности : 4:2:0
Битовая глубина : 8 бит
Тип развёртки : Прогрессивная
Бит/(Пиксели*Кадры) : 0.193
Размер потока : 3,30 Гбайт (83%)
Библиотека кодирования : x264 core 148 r2638 7599210
Настройки программы : cabac=1 / ref=9 / deblock=1:-3:-3 / analyse=0x3:0x133 / me=umh / subme=11 / psy=1 / psy_rd=1.10:0.15 / mixed_ref=1 / me_range=48 / chroma_me=1 / trellis=2 / 8x8dct=1 / cqm=0 / deadzone=21,11 / fast_pskip=0 / chroma_qp_offset=-3 / threads=8 / lookahead_threads=2 / sliced_threads=0 / nr=0 / decimate=0 / interlaced=0 / bluray_compat=0 / constrained_intra=0 / bframes=10 / b_pyramid=2 / b_adapt=2 / b_bias=0 / direct=3 / weightb=1 / open_gop=0 / weightp=2 / keyint=240 / keyint_min=23 / scenecut=40 / intra_refresh=0 / rc_lookahead=60 / rc=2pass / mbtree=0 / bitrate=4264 / ratetol=1.0 / qcomp=0.60 / qpmin=0 / qpmax=69 / qpstep=4 / cplxblur=20.0 / qblur=0.5 / vbv_maxrate=40000 / vbv_bufsize=50000 / nal_hrd=none / filler=0 / ip_ratio=1.40 / pb_ratio=1.30 / aq=1:1.00
Default : Нет
Forced : Нет
Цветовой диапазон : Limited
Основные цвета : BT.709
Характеристики трансфера : BT.709
Коэффициенты матрицы : BT.709

Аудио #1
Идентификатор : 2
Формат : AC-3
Формат/Информация : Audio Coding 3
Расширение режима : CM (complete main)
Параметр Endianness формата : Big
Идентификатор кодека : A_AC3
Продолжительность : 1 ч. 50 м.
Вид битрейта : Постоянный
Битрейт : 160 Кбит/сек
Каналы : 2 канала
Расположение каналов : Front: L R
Частота : 48,0 КГц
Частота кадров : 31,250 кадров/сек (1536 spf)
Битовая глубина : 16 бит
Метод сжатия : С потерями
Размер потока : 127 Мбайт (3%)
Язык : Russian
Default : Да
Forced : Нет

Аудио #2
Идентификатор : 3
Формат : AC-3
Формат/Информация : Audio Coding 3
Расширение режима : CM (complete main)
Параметр Endianness формата : Big
Идентификатор кодека : A_AC3
Продолжительность : 1 ч. 50 м.
Вид битрейта : Постоянный
Битрейт : 640 Кбит/сек
Каналы : 2 канала
Расположение каналов : Front: L R
Частота : 48,0 КГц
Частота кадров : 31,250 кадров/сек (1536 spf)
Битовая глубина : 16 бит
Метод сжатия : С потерями
Размер потока : 507 Мбайт (12%)
Язык : English
Default : Нет
Forced : Нет

Текст
Идентификатор : 4
Формат : PGS
Режим смешивания : zlib
Идентификатор кодека : S_HDMV/PGS
Идентификатор кодека/Информация : Picture based subtitle format used on BDs/HD-DVDs
Продолжительность : 1 ч. 49 м.
Битрейт : 68,8 Кбит/сек
Count of elements : 4208
Размер потока : 54,1 Мбайт (1%)
Язык : English
Default : Нет
Forced : Нет


Релиз от: Temperest


_________________
Проголосуй за трекер Открытый торрент трекер - RUS-MEDIA.ORG

Проголосуй Открытый торрент трекер - RUS-MEDIA.ORG



реклама партнёра


Вернуться к началу
 Профиль Отправить личное сообщение  
 
   Похожие торренты   Автор   Торрент   Размер 
В этой теме нет новых непрочитанных сообщений. До свиданья, дорогая / The Goodbye Girl [Драма, мелодрама, комедия, 1977] HDRip, Mvo

salma3

48 | 33

749.07 МБ

В этой теме нет новых непрочитанных сообщений. Убийства - мой конёк, дорогая / Mord ist mein Geschäft, Liebling [комедия, мелодрама, криминал, 2009] BDRip 720p, Dvo+sub

salma3

25 | 4

4.76 ГБ

В этой теме нет новых непрочитанных сообщений. Легионеры / Иди вперед или умри / March or Die [драма, мелодрама, приключения, военный, 1977] BDRip 720p, Mvo+Dvo

salma3

146 | 27

5.51 ГБ

В этой теме нет новых непрочитанных сообщений. Дорогая, я уменьшил детей / Honey, I Shrunk the Kids [Комедия, приключения, семейный, 1989] BDRip 720p, Mvo

salma3

52 | 5

5.75 ГБ

В этой теме нет новых непрочитанных сообщений. Прощай, Бафана / Goodbye Bafana [Драма, биография, история, экранизация, 2007] BDRip 720p, Mvo+Sub

salma3

156 | 43

5.91 ГБ

В этой теме нет новых непрочитанных сообщений. Девушка-король / The Girl King [Драма, мелодрама, биография, история, 2015] BDRip 720p, Avo

salma3

49 | 32

5.6 ГБ

В этой теме нет новых непрочитанных сообщений. Дневник девочки-подростка / The Diary of a Teenage Girl [Драма, мелодрама, 2015] BDRip 720p, Mvo [iTunes]

Dracon

7 | 2

4.64 ГБ


Начать новую тему Ответить на тему  [ 1 сообщение ] 




Для Мосгорсуда, Роскомнадзора и рекламодателей:: mosgorsud-torrent[собачка]yandex.ru
cron