Торрент файл
скачать торрент магнет ссылка Добавлен: 18 дек 2016, 11:19
Размер: 9.32 ГБ
Сидеров: 19
Личеров: 11
Статус: (salma3)
Автор

СообщениеДобавлено: 18 дек 2016, 11:19 

Не в сети
Супермодератор
Аватара пользователя
Дата регистрации:
15 фев 2012, 16:44
Возраст: 28
Спасибо: 6565 / 2130
Сообщения: 43671
Год выхода: 1966
Жанр: триллер, драма, криминал
Режиссер: Артур Пенн

В ролях: Марлон Брандо, Джейн Фонда, Роберт Редфорд, Роберт Дювалл, Э. Г. Маршалл, Энджи Дикинсон, Дженис Рул, Мириам Хопкинс, Марта Хайер, Ричард Брэдфорд

О фильме:
Штат Техас. В тихом провинциальном городке следит за порядком добропорядочный шериф Колдер. Однажды покой городка нарушает известие о том, что из тюрьмы бежал Баббер, который желает свести старые счеты кое с кем из жителей города. Коррумпированные отцы города испугались появления беглеца, ведь он слишком много знает об их грязном прошлом.



Страна: США
Продолжительность: 02:13:48
Перевод #1: Профессиональный (дублированный) Варус-Видео
Перевод #2: Профессиональный (многоголосый закадровый)
Перевод #3: Авторский (одноголосый закадровый) А.Гаврилов
Рип от SbR
Формат: MKV
Источник: Погоня / The Chase (1966) 1080p BD-Remux thx Semvlk
Видео: 1280x544 at 23.976 fps, x264@L4.1, 7442 kbps avg
Аудио#1: Russian: 48 kHz, AC3, 2/0 (L,R) ch, ~192.00 kbps avg |Дубляж, Варус-Видео|
Аудио#2: Russian: 48 kHz, AC3, 2/0 (L,R) ch, ~192.00 kbps avg |Многоголосый закадровый|
Аудио#3: Russian: 48 kHz/24-bit, DTS 2.0, ~1509.00 kbps avg |Одноголосый закадровый, А.Гаврилов|
Аудио#4: English: 48 kHz/24-bit, FLAC 2.0, ~329.00 kbps avg
Аудио#5: English: 48 kHz/24-bit, FLAC 2.0, ~302.00 kbps avg |музыкальные фрагменты|
Субтитры: Russian, English
• Сохранены оригинальные чаптеры как на Blu-ray.
• Дорожки №3 получены наложением чистого голоса на L,R каналы оригинала.
• Перевод Гаврилова доступен благодаря: Джосс, lexal2002, Chistobaev, dunhill200, feldeger, Dimec89, gemini, Goldtwait, Pain_70, edsz, vik19662007, pestel, ElenaS76, alent1204.
Релиз от: by delia
Source vs Encode





General
Unique ID : 174258789785187396661700406804863226574 (0x831905AA714C97B7A7F6F07E09D792CE)
Format : Matroska
Format version : Version 4 / Version 2
File size : 9.32 GiB
Duration : 2h 13mn
Overall bit rate mode : Variable
Overall bit rate : 9 970 Kbps
Encoded date : UTC 2016-12-12 17:03:57
Writing application : mkvmerge v9.6.0 ('Slave To Your Mind') 64bit
Writing library : libebml v1.3.4 + libmatroska v1.4.5
Attachements : cover.jpg
Video
ID : 1
Format : AVC
Format/Info : Advanced Video Codec
Format profile : High@L4.1
Format settings, CABAC : Yes
Format settings, ReFrames : 12 frames
Codec ID : V_MPEG4/ISO/AVC
Duration : 2h 13mn
Bit rate : 7 442 Kbps
Width : 1 280 pixels
Height : 544 pixels
Display aspect ratio : 2.35:1
Frame rate mode : Constant
Frame rate : 23.976 (23976/1000) fps
Color space : YUV
Chroma subsampling : 4:2:0
Bit depth : 8 bits
Scan type : Progressive
Bits/(Pixel*Frame) : 0.446
Stream size : 6.96 GiB (75%)
Writing library : x264 core 148 r2744+55 950084e t_mod_Custom [8-bit@all X86_64]
Encoding settings : cabac=1 / ref=12 / deblock=1:-3:-3 / analyse=0x3:0x133 / me=umh / subme=10 / psy=1 / fade_compensate=0.00 / psy_rd=1.00:0.05 / mixed_ref=1 / me_range=32 / chroma_me=1 / trellis=2 / 8x8dct=1 / cqm=0 / deadzone=21,11 / fast_pskip=0 / chroma_qp_offset=-3 / threads=6 / lookahead_threads=1 / sliced_threads=0 / nr=0 / decimate=1 / interlaced=0 / bluray_compat=0 / constrained_intra=0 / fgo=0 / bframes=8 / b_pyramid=2 / b_adapt=2 / b_bias=0 / direct=3 / weightb=1 / open_gop=0 / weightp=2 / keyint=250 / keyint_min=23 / scenecut=40 / intra_refresh=0 / rc_lookahead=60 / rc=crf / mbtree=0 / crf=16.7000 / qcomp=0.65 / qpmin=0:0:0 / qpmax=69:69:69 / qpstep=4 / vbv_maxrate=62500 / vbv_bufsize=78125 / crf_max=0.0 / nal_hrd=none / filler=0 / ip_ratio=1.30 / pb_ratio=1.20 / aq=3:0.65 / aq-sensitivity=10.00 / aq-factor=1.00:1.00:1.00 / aq2=0 / aq3=0
Language : English
Default : Yes
Forced : No
Color range : Limited
Color primaries : BT.709
Transfer characteristics : BT.709
Matrix coefficients : BT.709
Audio #1
ID : 2
Format : AC-3
Format/Info : Audio Coding 3
Mode extension : CM (complete main)
Format settings, Endianness : Big
Codec ID : A_AC3
Duration : 2h 13mn
Bit rate mode : Constant
Bit rate : 192 Kbps
Channel(s) : 2 channels
Channel positions : Front: L R
Sampling rate : 48.0 KHz
Frame rate : 31.250 fps (1536 spf)
Compression mode : Lossy
Stream size : 184 MiB (2%)
Title : Дубляж, Варус-Видео
Language : Russian
Default : Yes
Forced : No
Audio #2
ID : 3
Format : AC-3
Format/Info : Audio Coding 3
Mode extension : CM (complete main)
Format settings, Endianness : Big
Codec ID : A_AC3
Duration : 2h 13mn
Bit rate mode : Constant
Bit rate : 192 Kbps
Channel(s) : 2 channels
Channel positions : Front: L R
Sampling rate : 48.0 KHz
Frame rate : 31.250 fps (1536 spf)
Compression mode : Lossy
Stream size : 184 MiB (2%)
Title : Многоголосый закадровый
Language : Russian
Default : No
Forced : No
Audio #3
ID : 4
Format : DTS
Format/Info : Digital Theater Systems
Mode : 16
Format settings, Endianness : Big
Codec ID : A_DTS
Duration : 2h 13mn
Bit rate mode : Constant
Bit rate : 1 509 Kbps
Channel(s) : 2 channels
Channel positions : Front: L R
Sampling rate : 48.0 KHz
Frame rate : 93.750 fps (512 spf)
Bit depth : 24 bits
Compression mode : Lossy
Stream size : 1.41 GiB (15%)
Title : Одноголосый закадровый, А.Гаврилов
Language : Russian
Default : No
Forced : No
Audio #4
ID : 5
Format : FLAC
Format/Info : Free Lossless Audio Codec
Codec ID : A_FLAC
Duration : 2h 13mn
Bit rate mode : Variable
Bit rate : 329 Kbps
Channel(s) : 2 channels
Channel positions : Front: L R
Sampling rate : 48.0 KHz
Frame rate : 11.719 fps (4096 spf)
Bit depth : 16 bits
Stream size : 315 MiB (3%)
Writing library : libFLAC 1.2.1 (UTC 2007-09-17)
Language : English
Default : No
Forced : No
Audio #5
ID : 6
Format : FLAC
Format/Info : Free Lossless Audio Codec
Codec ID : A_FLAC
Duration : 2h 13mn
Bit rate mode : Variable
Bit rate : 302 Kbps
Channel(s) : 2 channels
Channel positions : Front: L R
Sampling rate : 48.0 KHz
Frame rate : 11.719 fps (4096 spf)
Bit depth : 16 bits
Stream size : 289 MiB (3%)
Title : музыкальные фрагменты
Writing library : libFLAC 1.2.1 (UTC 2007-09-17)
Language : English
Default : No
Forced : No
Text #1
ID : 7
Format : UTF-8
Codec ID : S_TEXT/UTF8
Codec ID/Info : UTF-8 Plain Text
Duration : 2h 12mn
Bit rate : 76 bps
Count of elements : 1443
Stream size : 74.1 KiB (0%)
Language : Russian
Default : No
Forced : No
Text #2
ID : 8
Format : UTF-8
Codec ID : S_TEXT/UTF8
Codec ID/Info : UTF-8 Plain Text
Duration : 2h 9mn
Bit rate : 57 bps
Count of elements : 1603
Stream size : 54.4 KiB (0%)
Language : English
Default : No
Forced : No
Menu
00:00:00.000 : en:00:00:00.000
00:06:08.743 : en:00:06:08.743
00:12:27.246 : en:00:12:27.246
00:17:15.951 : en:00:17:15.951
00:22:35.771 : en:00:22:35.771
00:30:09.724 : en:00:30:09.724
00:35:53.276 : en:00:35:53.276
00:41:09.592 : en:00:41:09.592
00:45:51.331 : en:00:45:51.331
00:50:07.629 : en:00:50:07.629
00:55:18.898 : en:00:55:18.898
01:00:18.906 : en:01:00:18.906
01:08:34.193 : en:01:08:34.193
01:14:41.268 : en:01:14:41.268
01:18:39.381 : en:01:18:39.381
01:24:15.967 : en:01:24:15.967
01:28:59.083 : en:01:28:59.083
01:34:20.571 : en:01:34:20.571
01:40:42.745 : en:01:40:42.745
01:46:28.882 : en:01:46:28.882
01:52:50.013 : en:01:52:50.013
01:57:05.893 : en:01:57:05.893
02:02:50.446 : en:02:02:50.446
02:07:11.498 : en:02:07:11.498


_________________
Проголосуй за трекер Открытый торрент трекер - RUS-MEDIA.ORG

Проголосуй Открытый торрент трекер - RUS-MEDIA.ORG



реклама партнёра


Вернуться к началу
 Профиль Отправить личное сообщение  
 
   Похожие торренты   Автор   Торрент   Размер 
В этой теме нет новых непрочитанных сообщений. Бумажная погоня / The Paper Chase [драма, комедия, 1973] WEB-DLRip, Mvo

salma3

34 | 15

1.45 ГБ

В этой теме нет новых непрочитанных сообщений. Меморандум Квиллера / The Quiller Memorandum [Триллер, драма, криминал, 1966] BDRip 1080p, Mvo

salma3

27 | 7

13.45 ГБ

В этой теме нет новых непрочитанных сообщений. Тройной крест / Triple cross [боевик, триллер, драма, приключения, военный, 1966] BDRip 720p, Mvo+Avo

salma3

5 | 5

5.08 ГБ

В этой теме нет новых непрочитанных сообщений. Проснись и убей / Svegliati e uccidi [драма, криминал, 1966] BDRip, Dvo

salma3

108 | 36

1.45 ГБ

В этой теме нет новых непрочитанных сообщений. Фотоувеличение / Blowup [триллер, драма, детектив, 1966] BDRip 1080p, Mvo+Dvo+Avo+Sub

salma3

49 | 9

8.55 ГБ

В этой теме нет новых непрочитанных сообщений. 451 градус по Фаренгейту / Fahrenheit 451 [Фантастика, триллер, драма, 1966] BDRip 720р, 4Mvo

salma3

47 | 7

7.29 ГБ

В этой теме нет новых непрочитанных сообщений. Смертоносные пчелы / The Deadly Bees [ужасы, триллер, драма, детектив, 1966] BDRip, Mvo

salma3

10 | 2

1.45 ГБ


Начать новую тему Ответить на тему  [ 1 сообщение ] 




Для Мосгорсуда, Роскомнадзора и рекламодателей:: mosgorsud-torrent[собачка]yandex.ru