Торрент файл
скачать торрент магнет ссылка Добавлен: 16 дек 2016, 13:45
Размер: 8.23 ГБ
Сидеров: 19
Личеров: 15
Статус: (salma3)
Автор

СообщениеДобавлено: 16 дек 2016, 13:45 

Не в сети
Супермодератор
Аватара пользователя
Дата регистрации:
15 фев 2012, 16:44
Возраст: 29
Спасибо: 7320 / 2147
Сообщения: 73192
Год выхода: 1988
Страна: США
Студия: Vista Organization
Продолжительность: 01:43:47
Жанр: ужасы, триллер, комедия
Режиссер: Томми Ли Уоллес

В ролях: Родди МакДауэлл, Уильям Рэгсдэйл, Трейси Линд, Джули Кармен, Джон Гриз, Расселл Кларк, Брайан Томпсон, Мерритт Бутрик, Мэтт Лэндерс, Эрни Сабелла, ...

Перевод:
- Авторский (одноголосый, закадровый) Матвеев Алексей
- Авторский (одноголосый, закадровый) Визгунов Сергей
- Любительский (одноголосый, закадровый) Radamant

О фильме: Прошло три года. Чарли Брустер уже считает (не без помощи психотерапевта), что вампиры — лишь плод его воображения. Питер Винсент же уверен в обратном. И вот является Реджина — сестра главного вампира, убитого в прошлой серии. Мстит она жестоко: лишает Питера его шоу, а Чарли превращает в упыря…



Кодек: x264
Качество: BDRip 1080p
Видео: 1920x816, 9043 kbps, 23,976 fps
Аудио #1: AC-3, 2 ch, 384 kbps (Rus) - AVO Матвеев Алексей (Doctor Joker)
Аудио #2: AC-3, 2 ch, 192 kbps (Rus) - AVO Визгунов Сергей
Аудио #3: AC-3, 2 ch, 224 kbps (Rus) - VO Radamant
Аудио #4: DTS, 2 ch, 1509 kbps (Eng)
Субтитры: Английские
Перевод и озвучка Алексея Матвеева стали доступны благодаря Переулку Переводмана и dikii.
Сведение с голосом - Переводман
Постер - Ольга Левицкая
Общее
Уникальный идентификатор : 176827689198105780397100709225617332846 (0x8507C62F80D988D3A9C69A55711A9A6E)
Полное имя : Ночь страха 2 (Fright Night Part 2) 1988 BDRip 1080p.mkv
Формат : Matroska
Версия формата : Version 2
Размер файла : 8,23 Гбайт
Продолжительность : 1 ч. 43 м.
Общий поток : 11,4 Мбит/сек
Дата кодирования : UTC 2016-12-13 11:41:05
Программа кодирования : mkvmerge v4.0.0 ('The Stars were mine') сборка от Jun 6 2010 16:18:42
Библиотека кодирования : libebml v1.0.0 + libmatroska v1.0.0
Видео
Идентификатор : 1
Формат : AVC
Формат/Информация : Advanced Video Codec
Профиль формата : High@L4.1
Параметр CABAC формата : Да
Параметр ReFrames формата : 5 кадров
Идентификатор кодека : V_MPEG4/ISO/AVC
Продолжительность : 1 ч. 43 м.
Битрейт : 9043 Кбит/сек
Ширина : 1920 пикселей
Высота : 816 пикселей
Соотношение сторон : 2,35:1
Режим частоты кадров : Постоянный
Частота кадров : 23,976 (24000/1001) кадра/сек
Цветовое пространство : YUV
Субдискретизация насыщенности : 4:2:0
Битовая глубина : 8 бит
Тип развёртки : Прогрессивная
Бит/(Пиксели*Кадры) : 0.241
Размер потока : 6,39 Гбайт (78%)
Библиотека кодирования : x264 core 148 r2694 3b70645
Настройки программы : cabac=1 / ref=5 / deblock=1:-1:-1 / analyse=0x3:0x133 / me=umh / subme=8 / psy=1 / psy_rd=1.00:0.15 / mixed_ref=1 / me_range=16 / chroma_me=1 / trellis=1 / 8x8dct=1 / cqm=0 / deadzone=21,11 / fast_pskip=0 / chroma_qp_offset=-4 / threads=18 / lookahead_threads=3 / sliced_threads=0 / nr=0 / decimate=1 / interlaced=0 / bluray_compat=0 / constrained_intra=0 / bframes=3 / b_pyramid=2 / b_adapt=2 / b_bias=0 / direct=3 / weightb=1 / open_gop=0 / weightp=2 / keyint=240 / keyint_min=23 / scenecut=40 / intra_refresh=0 / rc_lookahead=50 / rc=2pass / mbtree=1 / bitrate=9043 / ratetol=1.0 / qcomp=0.60 / qpmin=10 / qpmax=69 / qpstep=4 / cplxblur=20.0 / qblur=0.5 / ip_ratio=1.40 / aq=1:1.00
Язык : English
Default : Нет
Forced : Нет
Аудио #1
Идентификатор : 2
Формат : AC-3
Формат/Информация : Audio Coding 3
Расширение режима : CM (complete main)
Параметр Endianness формата : Big
Идентификатор кодека : A_AC3
Продолжительность : 1 ч. 43 м.
Вид битрейта : Постоянный
Битрейт : 384 Кбит/сек
Каналы : 2 канала
Расположение каналов : Front: L R
Частота : 48,0 КГц
Частота кадров : 31,250 кадров/сек (1536 spf)
Метод сжатия : С потерями
Размер потока : 285 Мбайт (3%)
Заголовок : AVO Матвеев Алексей (Doctor Joker)
Язык : Russian
Default : Нет
Forced : Нет
Аудио #2
Идентификатор : 3
Формат : AC-3
Формат/Информация : Audio Coding 3
Расширение режима : CM (complete main)
Параметр Endianness формата : Big
Идентификатор кодека : A_AC3
Продолжительность : 1 ч. 43 м.
Вид битрейта : Постоянный
Битрейт : 192 Кбит/сек
Каналы : 2 канала
Расположение каналов : Front: L R
Частота : 48,0 КГц
Частота кадров : 31,250 кадров/сек (1536 spf)
Метод сжатия : С потерями
Размер потока : 143 Мбайт (2%)
Заголовок : AVO Визгунов Сергей
Язык : Russian
Default : Нет
Forced : Нет
Аудио #3
Идентификатор : 4
Формат : AC-3
Формат/Информация : Audio Coding 3
Расширение режима : CM (complete main)
Параметр Endianness формата : Big
Идентификатор кодека : A_AC3
Продолжительность : 1 ч. 43 м.
Вид битрейта : Постоянный
Битрейт : 224 Кбит/сек
Каналы : 2 канала
Расположение каналов : Front: L R
Частота : 48,0 КГц
Частота кадров : 31,250 кадров/сек (1536 spf)
Метод сжатия : С потерями
Размер потока : 166 Мбайт (2%)
Заголовок : VO Radamant
Язык : Russian
Default : Нет
Forced : Нет
Аудио #4
Идентификатор : 5
Формат : DTS
Формат/Информация : Digital Theater Systems
Режим : 16
Параметр Endianness формата : Big
Идентификатор кодека : A_DTS
Продолжительность : 1 ч. 43 м.
Вид битрейта : Постоянный
Битрейт : 1509 Кбит/сек
Каналы : 2 канала
Расположение каналов : Front: L R
Частота : 48,0 КГц
Частота кадров : 93,750 кадра/сек (512 spf)
Битовая глубина : 24 бит
Метод сжатия : С потерями
Задержка видео : 11 мс.
Размер потока : 1,09 Гбайт (13%)
Язык : English
Default : Нет
Forced : Нет
Текст
Идентификатор : 6
Формат : UTF-8
Идентификатор кодека : S_TEXT/UTF8
Идентификатор кодека/Информация : UTF-8 Plain Text
Язык : English
Default : Нет
Forced : Нет



_________________
Проголосуй за трекер Открытый торрент трекер - RUS-MEDIA.ORG

Проголосуй Открытый торрент трекер - RUS-MEDIA.ORG


Вернуться к началу
 Профиль Отправить личное сообщение  
 
   Похожие торренты   Автор   Торрент   Размер 
В этой теме нет новых непрочитанных сообщений. Ночь Страха 2 / Fright Night Part 2 [ Ужасы, комедия, триллер, 1988] Blu-Ray Remux 1080p, Avo

salma3

0 | 22

16.91 ГБ

В этой теме нет новых непрочитанных сообщений. Ночь страха / Fright Night [ужасы, триллер, комедия, 2011] Blu-ray EUR 1080p, Dub [Лицензия]

salma3

7 | 8

36.92 ГБ

В этой теме нет новых непрочитанных сообщений. Ночь страха / Fright Night [ужасы, триллер, комедия, 1985] BDRip 720p, Mvo

salma3

1 | 1

6.5 ГБ

В этой теме нет новых непрочитанных сообщений. Ночь демонов / Night of the Demons [ужасы, комедия, 1988] BDRip 1080p, Avo

salma3

54 | 33

8.86 ГБ

В этой теме нет новых непрочитанных сообщений. Ночь демонов / Night of the Demons [ужасы, фэнтези, комедия, 1988] BDRip-AVC, Avo

salma3

8 | 8

2.13 ГБ

В этой теме нет новых непрочитанных сообщений. Одна ночь страха / One Night of Fear [ужасы, триллер, приключения, 2016] WEBRip, Avo

salma3

1271 | 335

745.25 МБ

В этой теме нет новых непрочитанных сообщений. Тихая ночь, смертельная ночь / Silent Night, Deadly Night [ужасы, триллер, слэшер, 1984] BDRip 720p, Avo

salma3

9 | 4

3.6 ГБ


Начать новую тему Ответить на тему  [ 1 сообщение ] 




Для Мосгорсуда, Роскомнадзора и рекламодателей:: mosgorsud-torrent[собачка]yandex.ru
cron
cron