Торрент файл
скачать торрент магнет ссылка Добавлен: 12 дек 2016, 22:28
Размер: 11.17 ГБ
Сидеров: 92
Личеров: 15
Статус: (salma3)
Автор

СообщениеДобавлено: 12 дек 2016, 22:28 

Не в сети
Супермодератор
Аватара пользователя
Дата регистрации:
15 фев 2012, 16:44
Возраст: 28
Спасибо: 7205 / 2147
Сообщения: 65464
Год выпуска: 1971
Жанр: фантастика, драма, криминал
Выпущено: Великобритания, США
Режиссер: Стэнли Кубрик
В ролях: Малкольм МакДауэлл , Патрик Мэги , Майкл Бейтс , Уоррен Кларк , Джон Клайв , Эдриенн Корри , Карл Дюринг , Пол Фэррел , Клайв Фрэнсис , Майкл Говер , Мириам Карлин , Джеймс Маркус
Перевод: Профессиональный многоголосый, Профессиональный двухголосый, Авторский одноголосый

Сюжет фильма:
В фильме был произведен исчерпывающий анализ причин преступности среди молодежи, нетерпимости нового поколения к привычным моральным ценностям и жизненным устоям современного общества.
Безжалостный лидер банды подростков, совершающей убийства и изнасилования, попадает в тюрьму и подвергается специальной обработке по подавлению подсознательного стремления к насилию. Но жизнь за воротами тюрьмы такова, что меры, принятые по «исправлению жестокости характера» не могут ничего изменить..

Качество: BDRip 720p
Формат: AVC (библиотека кодирования x.264)
Контейнер (Расширение): MKV
Видео: 1190x720, 8500 Кбит/сек, 23,976 кадр/сек, 0,414 Бит/[Пиксели*Кадры]
Аудио №1: русский / AC3 / 5.1 / 48 kHz / 448 kbps / |Профессиональный многоголосый|
Аудио №2: русский / AC3 / 2.0 / 48 kHz / 192 kbps / |Профессиональный многоголосый, НТВ|
Аудио №3: русский / AC3 / 1.0 / 48 kHz / 192 kbps / |Профессиональный двухголосый|
Аудио №4: русский / AC3 / 5.1 / 48 kHz / 640 kbps / |Авторский одноголосый, Ю.Живов|
Аудио №5: русский / AC3 / 5.1 / 48 kHz / 640 kbps / |Авторский одноголосый, В. Горчаков|
Аудио №6: русский / AC3 / 5.1 / 48 kHz / 448 kbps / |Авторский одноголосый, А. Матвеев|
Аудио №7: английский / AC3 / 5.1 / 48 kHz / 640 kbps /
Субтитры: русские, русские (Doctor Joker (А. Матвеев)), английские
Навигация по главам(Чаптеры): есть
Продолжительность: 02:16:36
Автор рипа: Сообщество:

Format : Matroska
Format version : Version 2
File size : 11.2 GiB
Duration : 2 h 16 min
Overall bit rate : 11.7 Mb/s
Movie name : A Clockwork Orange.1971.BDRip.720p.[denis100]
Encoded date : UTC 2016-12-11 07:18:08
Writing application : mkvmerge v5.8.0 ('No Sleep / Pillow') built on Sep 2 2012 15:37:04
Writing library : libebml v1.2.3 + libmatroska v1.3.0
Video
ID : 1
Format : AVC
Format/Info : Advanced Video Codec
Format profile : High@L4.1
Format settings, CABAC : Yes
Format settings, ReFrames : 9 frames
Codec ID : V_MPEG4/ISO/AVC
Duration : 2 h 16 min
Bit rate : 8 500 kb/s
Width : 1 190 pixels
Height : 720 pixels
Display aspect ratio : 5:3
Frame rate mode : Constant
Frame rate : 23.976 (24000/1001) FPS
Color space : YUV
Chroma subsampling : 4:2:0
Bit depth : 8 bits
Scan type : Progressive
Bits/(Pixel*Frame) : 0.414
Stream size : 7.89 GiB (71%)
Title : A Clockwork Orange.1971.BDRip.720p.[denis100]
Writing library : x264 core 148 r2744 b97ae06
Encoding settings : cabac=1 / ref=9 / deblock=1:-3:-3 / analyse=0x3:0x133 / me=umh / subme=11 / psy=1 / psy_rd=1.00:0.15 / mixed_ref=1 / me_range=32 / chroma_me=1 / trellis=2 / 8x8dct=1 / cqm=0 / deadzone=21,11 / fast_pskip=0 / chroma_qp_offset=-3 / threads=6 / lookahead_threads=1 / sliced_threads=0 / nr=0 / decimate=1 / interlaced=0 / bluray_compat=0 / constrained_intra=0 / bframes=9 / b_pyramid=2 / b_adapt=2 / b_bias=0 / direct=3 / weightb=1 / open_gop=0 / weightp=2 / keyint=240 / keyint_min=23 / scenecut=40 / intra_refresh=0 / rc=2pass / mbtree=0 / bitrate=8500 / ratetol=1.0 / qcomp=0.60 / qpmin=0 / qpmax=69 / qpstep=4 / cplxblur=20.0 / qblur=0.5 / ip_ratio=1.40 / pb_ratio=1.30 / aq=1:0.85
Language : English
Default : Yes
Forced : No
Audio #1
ID : 2
Format : AC-3
Format/Info : Audio Coding 3
Mode extension : CM (complete main)
Format settings, Endianness : Big
Codec ID : A_AC3
Duration : 2 h 16 min
Bit rate mode : Constant
Bit rate : 448 kb/s
Channel(s) : 6 channels
Channel positions : Front: L C R, Side: L R, LFE
Sampling rate : 48.0 kHz
Frame rate : 31.250 FPS (1536 spf)
Compression mode : Lossy
Stream size : 438 MiB (4%)
Title : MVO
Language : Russian
Default : Yes
Forced : No
Audio #2
ID : 3
Format : AC-3
Format/Info : Audio Coding 3
Mode extension : CM (complete main)
Format settings, Endianness : Big
Codec ID : A_AC3
Duration : 2 h 16 min
Bit rate mode : Constant
Bit rate : 192 kb/s
Channel(s) : 2 channels
Channel positions : Front: L R
Sampling rate : 48.0 kHz
Frame rate : 31.250 FPS (1536 spf)
Compression mode : Lossy
Stream size : 188 MiB (2%)
Title : MVO, НТВ
Language : Russian
Default : No
Forced : No
Audio #3
ID : 4
Format : AC-3
Format/Info : Audio Coding 3
Mode extension : CM (complete main)
Format settings, Endianness : Big
Codec ID : A_AC3
Duration : 2 h 16 min
Bit rate mode : Constant
Bit rate : 192 kb/s
Channel(s) : 1 channel
Channel positions : Front: C
Sampling rate : 48.0 kHz
Frame rate : 31.250 FPS (1536 spf)
Compression mode : Lossy
Stream size : 188 MiB (2%)
Title : DVO
Language : Russian
Default : No
Forced : No
Audio #4
ID : 5
Format : AC-3
Format/Info : Audio Coding 3
Mode extension : CM (complete main)
Format settings, Endianness : Big
Codec ID : A_AC3
Duration : 2 h 16 min
Bit rate mode : Constant
Bit rate : 640 kb/s
Channel(s) : 6 channels
Channel positions : Front: L C R, Side: L R, LFE
Sampling rate : 48.0 kHz
Frame rate : 31.250 FPS (1536 spf)
Compression mode : Lossy
Stream size : 625 MiB (5%)
Title : AVO, Ю.Живов
Language : Russian
Default : No
Forced : No
Audio #5
ID : 6
Format : AC-3
Format/Info : Audio Coding 3
Mode extension : CM (complete main)
Format settings, Endianness : Big
Codec ID : A_AC3
Duration : 2 h 16 min
Bit rate mode : Constant
Bit rate : 640 kb/s
Channel(s) : 6 channels
Channel positions : Front: L C R, Side: L R, LFE
Sampling rate : 48.0 kHz
Frame rate : 31.250 FPS (1536 spf)
Compression mode : Lossy
Stream size : 625 MiB (5%)
Title : AVO, В.Горчаков
Language : Russian
Default : No
Forced : No
Audio #6
ID : 7
Format : AC-3
Format/Info : Audio Coding 3
Mode extension : CM (complete main)
Format settings, Endianness : Big
Codec ID : A_AC3
Duration : 2 h 16 min
Bit rate mode : Constant
Bit rate : 448 kb/s
Channel(s) : 6 channels
Channel positions : Front: L C R, Side: L R, LFE
Sampling rate : 48.0 kHz
Frame rate : 31.250 FPS (1536 spf)
Compression mode : Lossy
Stream size : 438 MiB (4%)
Title : AVO, А. Матвеев
Language : Russian
Default : No
Forced : No
Audio #7
ID : 8
Format : AC-3
Format/Info : Audio Coding 3
Mode extension : CM (complete main)
Format settings, Endianness : Big
Codec ID : A_AC3
Duration : 2 h 16 min
Bit rate mode : Constant
Bit rate : 640 kb/s
Channel(s) : 6 channels
Channel positions : Front: L C R, Side: L R, LFE
Sampling rate : 48.0 kHz
Frame rate : 31.250 FPS (1536 spf)
Compression mode : Lossy
Stream size : 625 MiB (5%)
Language : English
Default : No
Forced : No
Text #1
ID : 9
Format : UTF-8
Codec ID : S_TEXT/UTF8
Codec ID/Info : UTF-8 Plain Text
Language : Russian
Default : No
Forced : No
Text #2
ID : 10
Format : UTF-8
Codec ID : S_TEXT/UTF8
Codec ID/Info : UTF-8 Plain Text
Title : Doctor Joker (А. Матвеев)
Language : Russian
Default : No
Forced : No
Text #3
ID : 11
Format : UTF-8
Codec ID : S_TEXT/UTF8
Codec ID/Info : UTF-8 Plain Text
Language : English
Default : No
Forced : No
Menu
00:00:00.000 : en:00:00:00.000
00:02:17.053 : en:00:02:17.053
00:04:28.017 : en:00:04:28.017
00:07:32.368 : en:00:07:32.368
00:08:58.454 : en:00:08:58.454
00:13:21.717 : en:00:13:21.717
00:16:46.755 : en:00:16:46.755
00:20:02.451 : en:00:20:02.451
00:25:47.796 : en:00:25:47.796
00:28:05.308 : en:00:28:05.308
00:29:04.200 : en:00:29:04.200
00:33:19.247 : en:00:33:19.247
00:36:30.605 : en:00:36:30.605
00:43:32.192 : en:00:43:32.192
00:47:21.088 : en:00:47:21.088
00:52:57.048 : en:00:52:57.048
00:55:30.452 : en:00:55:30.452
01:01:19.759 : en:01:01:19.759
01:07:20.786 : en:01:07:20.786
01:11:13.852 : en:01:11:13.852
01:15:33.946 : en:01:15:33.946
01:19:16.376 : en:01:19:16.376
01:23:59.242 : en:01:23:59.242
01:26:18.882 : en:01:26:18.882
01:28:09.200 : en:01:28:09.200
01:31:53.591 : en:01:31:53.591
01:35:55.374 : en:01:35:55.374
01:39:30.923 : en:01:39:30.923
01:42:23.178 : en:01:42:23.178
01:49:38.863 : en:01:49:38.863
02:01:09.261 : en:02:01:09.261
02:04:03.185 : en:02:04:03.185
02:07:37.566 : en:02:07:37.566
02:12:34.029 : en:02:12:34.029
02:13:57.029 : en:02:13:57.029
x264 [info]: frame I:1113 Avg QP:12.41 size:172591
x264 [info]: frame P:38886 Avg QP:14.25 size: 78818
x264 [info]: frame B:156524 Avg QP:16.17 size: 34828
x264 [info]: consecutive B-frames: 1.2% 1.3% 2.4% 27.3% 6.9% 45.1% 2.5% 12.8% 0.3% 0.3%


_________________
Проголосуй за трекер Открытый торрент трекер - RUS-MEDIA.ORG

Проголосуй Открытый торрент трекер - RUS-MEDIA.ORG


Вернуться к началу
 Профиль Отправить личное сообщение  
 
   Похожие торренты   Автор   Торрент   Размер 
В этой теме нет новых непрочитанных сообщений. Кровавый апельсин / Blood Orange [триллер, 2016] HDRip, Avo

salma3

42 | 3

1.15 ГБ

В этой теме нет новых непрочитанных сообщений. Грязный Гарри / Dirty Harry [боевик, триллер, криминал, 1971] BDRip 720p, Mvo

salma3

11 | 2

4.28 ГБ

В этой теме нет новых непрочитанных сообщений. Лето 42-го / Summer of '42 [драма, мелодрама, комедия, 1971] BDRip 720p, Dvo

salma3

4 | 4

4.35 ГБ

В этой теме нет новых непрочитанных сообщений. Сыграй мне перед смертью / Play Misty for Me [триллер, драма, криминал, 1971] BDRip, Dub

salma3

9 | 1

1.45 ГБ

В этой теме нет новых непрочитанных сообщений. Охота / The Hunting Party [боевик, драма, вестерн, 1971] BDRip 720p, Mvo

salma3

14 | 6

10.1 ГБ

В этой теме нет новых непрочитанных сообщений. Большой босс / Tang shan da xiong [боевик, драма, криминал, 1971] BDRip-HEVC 1080p, Mvo

salma3

0 | 0

6.8 ГБ

В этой теме нет новых непрочитанных сообщений. Оранжевый - хит сезона / Orange Is the New Black [S02] (Эндрю МакКарти, Майкл Трим, Мэттью Пенн) [драма, комедия, криминал, 2014] WEBRip [NewStudio]

Dracon

311 | 63

9.28 ГБ


Начать новую тему Ответить на тему  [ 1 сообщение ] 




Для Мосгорсуда, Роскомнадзора и рекламодателей:: mosgorsud-torrent[собачка]yandex.ru
cron