Торрент файл
скачать торрент магнет ссылка Добавлен: 12 дек 2016, 22:01
Размер: 8.54 ГБ
Сидеров: 49
Личеров: 13
Статус: (salma3)
Автор

СообщениеДобавлено: 12 дек 2016, 22:01 

Не в сети
Супермодератор
Аватара пользователя
Дата регистрации:
15 фев 2012, 16:44
Возраст: 28
Спасибо: 7224 / 2147
Сообщения: 67983
Год выхода: 2007
Страна: США
Студия: Bauer Martinez Studios, Templar Films Unlimited, Formula Films
Продолжительность: 01:33:02
Жанр: драма, мелодрама, комедия
Режиссер: Стив Карр

В ролях: Мишель Пфайффер, Пол Радд, Сирша Ронан, Стейси Дэш, Фред Уиллард, Джон Ловиц, Сара Александр, Трейси Уллмен, Ясмин Пейдж, Рори Копус, ...

Перевод:
- Профессиональный (дублированный) МОСФИЛЬМ-мастер
- Любительский (двухголосый, закадровый) Сладкая парочка

О фильме: Роузи работает телепродюсером, и в окружении молоденьких красавиц все больше переживает по поводу своего возраста и неудачного брака. Но в ее жизни происходит чудо, она встречает мужчину, который, несмотря на весьма молодой возраст, помогает ей не только вновь обрести чувство любви, но и заставляет ее вновь поверить в себя. Адам, обаятельный и яркий, меняет жизнь женщины. Тем временем дочь Роузи переживает свою первую влюбленность…



Кодек: x264
Качество: BDRip 1080p
Видео: 1920x1080, 11000 kbps, 25 fps
Аудио #1: AC-3, 6 ch, 448 kbps (Rus) - Dub МОСФИЛЬМ-мастер
Аудио #2: AC-3, 2 ch, 192 kbps (Rus) - DVOL сладкая парочка
Аудио #3: DTS, 6 ch, 1509 kbps (Eng)
Субтитры: Английские
За исходник спасибо - Гость
x264 [info]: frame I:1001 Avg QP:18.03 size:202525
x264 [info]: frame P:32329 Avg QP:19.51 size: 79189
x264 [info]: frame B:106236 Avg QP:22.14 size: 46196
x264 [info]: consecutive B-frames: 3.2% 2.3% 15.1% 14.8% 8.2% 48.0% 6.8% 0.8% 0.4% 0.2% 0.1% 0.1% 0.1%
Общее
Уникальный идентификатор : 232569933206984407041274793333056831771 (0xAEF7570096F21809A78E444A22E3811B)
Полное имя : Я никогда не буду твоей (I Could Never Be Your Woman) 2007 BDRip 1080p.mkv
Формат : Matroska
Версия формата : Version 2
Размер файла : 8,54 Гбайт
Продолжительность : 1 ч. 33 м.
Общий поток : 13,1 Мбит/сек
Дата кодирования : UTC 2016-12-11 18:06:30
Программа кодирования : mkvmerge v4.0.0 ('The Stars were mine') сборка от Jun 6 2010 16:18:42
Библиотека кодирования : libebml v1.0.0 + libmatroska v1.0.0
Видео
Идентификатор : 1
Формат : AVC
Формат/Информация : Advanced Video Codec
Профиль формата : High@L4.1
Параметр CABAC формата : Да
Параметр ReFrames формата : 4 кадра
Идентификатор кодека : V_MPEG4/ISO/AVC
Продолжительность : 1 ч. 33 м.
Битрейт : 11,0 Мбит/сек
Ширина : 1920 пикселей
Высота : 1080 пикселей
Соотношение сторон : 16:9
Режим частоты кадров : Постоянный
Частота кадров : 25,000 кадров/сек
Цветовое пространство : YUV
Субдискретизация насыщенности : 4:2:0
Битовая глубина : 8 бит
Тип развёртки : Прогрессивная
Бит/(Пиксели*Кадры) : 0.212
Размер потока : 6,98 Гбайт (82%)
Библиотека кодирования : x264 core 146 r2538 121396c
Настройки программы : cabac=1 / ref=4 / deblock=1:-3:-3 / analyse=0x3:0x133 / me=umh / subme=11 / psy=1 / psy_rd=1.00:0.00 / mixed_ref=1 / me_range=32 / chroma_me=1 / trellis=2 / 8x8dct=1 / cqm=0 / deadzone=21,11 / fast_pskip=0 / chroma_qp_offset=-2 / threads=12 / lookahead_threads=2 / sliced_threads=0 / nr=0 / decimate=0 / interlaced=0 / bluray_compat=0 / constrained_intra=0 / bframes=12 / b_pyramid=2 / b_adapt=2 / b_bias=0 / direct=3 / weightb=1 / open_gop=0 / weightp=2 / keyint=250 / keyint_min=25 / scenecut=40 / intra_refresh=0 / rc=2pass / mbtree=0 / bitrate=11000 / ratetol=1.0 / qcomp=0.60 / qpmin=0 / qpmax=69 / qpstep=4 / cplxblur=20.0 / qblur=0.5 / ip_ratio=1.40 / pb_ratio=1.30 / aq=1:0.80
Язык : English
Default : Нет
Forced : Нет
Аудио #1
Идентификатор : 2
Формат : AC-3
Формат/Информация : Audio Coding 3
Расширение режима : CM (complete main)
Параметр Endianness формата : Big
Идентификатор кодека : A_AC3
Продолжительность : 1 ч. 33 м.
Вид битрейта : Постоянный
Битрейт : 448 Кбит/сек
Каналы : 6 каналов
Расположение каналов : Front: L C R, Side: L R, LFE
Частота : 48,0 КГц
Частота кадров : 31,250 кадров/сек (1536 spf)
Метод сжатия : С потерями
Размер потока : 298 Мбайт (3%)
Заголовок : Dub МОСФИЛЬМ-мастер
Язык : Russian
Default : Нет
Forced : Нет
Аудио #2
Идентификатор : 3
Формат : AC-3
Формат/Информация : Audio Coding 3
Расширение режима : CM (complete main)
Параметр Endianness формата : Big
Идентификатор кодека : A_AC3
Продолжительность : 1 ч. 33 м.
Вид битрейта : Постоянный
Битрейт : 192 Кбит/сек
Каналы : 2 канала
Расположение каналов : Front: L R
Частота : 48,0 КГц
Частота кадров : 31,250 кадров/сек (1536 spf)
Метод сжатия : С потерями
Размер потока : 128 Мбайт (1%)
Заголовок : DVOL сладкая парочка
Язык : Russian
Default : Нет
Forced : Нет
Аудио #3
Идентификатор : 4
Формат : DTS
Формат/Информация : Digital Theater Systems
Режим : 16
Параметр Endianness формата : Big
Идентификатор кодека : A_DTS
Продолжительность : 1 ч. 33 м.
Вид битрейта : Постоянный
Битрейт : 1509 Кбит/сек
Каналы : 6 каналов
Расположение каналов : Front: L C R, Side: L R, LFE
Частота : 48,0 КГц
Частота кадров : 93,750 кадра/сек (512 spf)
Битовая глубина : 16 бит
Метод сжатия : С потерями
Размер потока : 1004 Мбайт (11%)
Язык : English
Default : Нет
Forced : Нет
Текст
Идентификатор : 5
Формат : UTF-8
Идентификатор кодека : S_TEXT/UTF8
Идентификатор кодека/Информация : UTF-8 Plain Text
Язык : English
Default : Нет
Forced : Нет



_________________
Проголосуй за трекер Открытый торрент трекер - RUS-MEDIA.ORG

Проголосуй Открытый торрент трекер - RUS-MEDIA.ORG


Вернуться к началу
 Профиль Отправить личное сообщение  
 
   Похожие торренты   Автор   Торрент   Размер 
В этой теме нет новых непрочитанных сообщений. Я никогда не буду твоей / I Could Never Be Your Woman [драма, мелодрама, комедия, 2007] BDRip, Dub

salma3

45 | 6

1.45 ГБ

В этой теме нет новых непрочитанных сообщений. Вкус жизни / No Reservations [драма, мелодрама, комедия, 2007] BDRip 1080p, Dub+Avo+Sub

salma3

44 | 7

7.01 ГБ

В этой теме нет новых непрочитанных сообщений. В следующий раз я буду стрелять в сердце / La prochaine fois je viserai le coeur (Седрик Анже) [триллер, драма, криминал, 2014] BDRip 1080p, Mvo [Лицензия]

Dracon

27 | 1

8.24 ГБ

В этой теме нет новых непрочитанных сообщений. Я любить тебя буду, можно? [мелодрама, 2017] WEB-DL 1080p [iTunes]

salma3

534 | 104

2.12 ГБ

В этой теме нет новых непрочитанных сообщений. Красотка / Pretty Woman [Мелодрама, комедия, 1990] BDRemux 1080p, Dub+Mvo+Dvo+Avo+Sub

salma3

8 | 47

40.29 ГБ

В этой теме нет новых непрочитанных сообщений. Красотка / Pretty Woman [Мелодрама, комедия, 1990] BDRip-AVC, Avo [Режиссёрская версия]

salma3

15 | 1

3.21 ГБ

В этой теме нет новых непрочитанных сообщений. Наркоз / Awake [триллер, драма, мелодрама, 2007] BDRip 1080p, Dub

salma3

169 | 91

7.84 ГБ


Начать новую тему Ответить на тему  [ 1 сообщение ] 




Для Мосгорсуда, Роскомнадзора и рекламодателей:: mosgorsud-torrent[собачка]yandex.ru
cron