Торрент файл
скачать торрент магнет ссылка Добавлен: 11 дек 2016, 13:45
Размер: 4.32 ГБ
Сидеров: 47
Личеров: 17
Статус: (salma3)
Автор

СообщениеДобавлено: 11 дек 2016, 13:45 

Не в сети
Супермодератор
Аватара пользователя
Дата регистрации:
15 фев 2012, 16:44
Возраст: 28
Спасибо: 7204 / 2147
Сообщения: 65100
Год выхода: 1992
Жанр: триллер, драма, криминал
Режиссер: Эрнест Р. Дикерсон

В ролях: Омар Эппс — Куинси, Тупак Шакур — Бишоп, Халил Кейн — Рэхим, Жермен Хагги Хопкинс — Стил, Синди Хэрон — Йоланда, Винсент Лареска — Радамэс, Сэмюэл Л. Джексон — Трип, Куин Латифа — M.C. Ruffhouse.

О фильме:
Фильм рассказывает о тяжелой жизни черных людей в Гарлеме. Четверо подростков ведут преступную жизнь и все казалось бы «хорошо», но их жизнь меняется после неудачного ограбления магазина.



Страна: США
Студия: Island World, Original Film, Heyday Films, Paramount Pictures
Продолжительность: 01:34:44
Перевод: Профессиональный двухголосый, Любительский одноголосый, Оригинал

Файл
Качество: WEB-DL 1080p
Видео: 1912x1072 (16:9), 23.976 fps, MPEG-4 AVC, 5250 Kbps
Звук:
Аудио #1: AC3, 384 Kbps, 48.0 KHz, 2 ch (Rus) Профессиональный двухголосый, НТВ+
Аудио #2: AC3, 384 Kbps, 48.0 KHz, 2 ch (Rus) Любительский одноголосый
Аудио #3: AC3, 384 Kbps, 48.0 KHz, 6 ch (Eng) Оригинал
Субтитры: Нет

Формат : Matroska
Версия формата : Version 2
Размер файла : 4,32 Гбайт
Продолжительность : 1 ч. 34 м.
Общий поток : 6532 Кбит/сек
Дата кодирования : UTC 2016-11-08 19:35:27
Программа кодирования : mkvmerge v5.4.0 ('Piper') built on Mar 10 2012 13:34:39
Библиотека кодирования : libebml v1.2.3 + libmatroska v1.3.0
Видео
Идентификатор : 1
Формат : AVC
Формат/Информация : Advanced Video Codec
Профиль формата : High@L4.0
Параметр CABAC формата : Да
Параметр ReFrames формата : 4 кадра
Идентификатор кодека : V_MPEG4/ISO/AVC
Продолжительность : 1 ч. 34 м.
Битрейт : 5250 Кбит/сек
Ширина : 1912 пикселей
Высота : 1072 пикселя
Соотношение сторон : 16:9
Режим частоты кадров : Постоянный
Частота кадров : 23,976 кадра/сек
Цветовое пространство : YUV
Субдискретизация насыщенности : 4:2:0
Битовая глубина : 8 бит
Тип развёртки : Прогрессивная
Бит/(Пиксели*Кадры) : 0.107
Размер потока : 3,47 Гбайт (80%)
Заголовок : Juice / Авторитет / Сок / Закваска (1992)
Язык : English
Default : Да
Forced : Нет
Основные цвета : BT.709
Характеристики трансфера : BT.709
Коэффициенты матрицы : BT.709
colour_range : Limited
Аудио #1
Идентификатор : 2
Формат : AC-3
Формат/Информация : Audio Coding 3
Расширение режима : CM (complete main)
Параметр Endianness формата : Big
Идентификатор кодека : A_AC3
Продолжительность : 1 ч. 34 м.
Вид битрейта : Постоянный
Битрейт : 384 Кбит/сек
Каналы : 2 канала
Расположение каналов : Front: L R
Частота : 48,0 КГц
Битовая глубина : 16 бит
Метод сжатия : С потерями
Размер потока : 260 Мбайт (6%)
Заголовок : DVO (Russian) НТВ+
Язык : Russian
Default : Да
Forced : Нет
Аудио #2
Идентификатор : 3
Формат : AC-3
Формат/Информация : Audio Coding 3
Расширение режима : CM (complete main)
Параметр Endianness формата : Big
Идентификатор кодека : A_AC3
Продолжительность : 1 ч. 34 м.
Вид битрейта : Постоянный
Битрейт : 384 Кбит/сек
Каналы : 2 канала
Расположение каналов : Front: L R
Частота : 48,0 КГц
Битовая глубина : 16 бит
Метод сжатия : С потерями
Размер потока : 260 Мбайт (6%)
Заголовок : VO (Russian)
Язык : Russian
Default : Нет
Forced : Нет
Аудио #3
Идентификатор : 4
Формат : AC-3
Формат/Информация : Audio Coding 3
Расширение режима : CM (complete main)
Параметр Endianness формата : Big
Идентификатор кодека : A_AC3
Продолжительность : 1 ч. 34 м.
Вид битрейта : Постоянный
Битрейт : 384 Кбит/сек
Каналы : 6 каналов
Расположение каналов : Front: L C R, Side: L R, LFE
Частота : 48,0 КГц
Битовая глубина : 16 бит
Метод сжатия : С потерями
Размер потока : 260 Мбайт (6%)
Заголовок : Original (English)
Язык : English
Default : Нет
Forced : Нет
Меню
00:00:00.000 : en:Main Titles
00:02:39.000 : en:Wrecking Crew
00:20:43.000 : en:Blizzard
00:29:44.000 : en:Yolanda
00:33:41.000 : en:Gee Q
00:41:08.000 : en:Mixxmaster Massacre
00:46:46.000 : en:Old Man Quiles
00:49:22.000 : en:"If I go down, you go down."
00:57:53.000 : en:Gone Crazy
01:13:08.000 : en:The Frame
01:21:51.000 : en:Juice

Релиз от: Daniel Breadly


_________________
Проголосуй за трекер Открытый торрент трекер - RUS-MEDIA.ORG

Проголосуй Открытый торрент трекер - RUS-MEDIA.ORG


Вернуться к началу
 Профиль Отправить личное сообщение  
 
   Похожие торренты   Автор   Торрент   Размер 
В этой теме нет новых непрочитанных сообщений. Авторитет / Сок / Закваска / Juice [Триллер, драма, криминал, 1992] BDRip 1080p, Dvo

salma3

43 | 27

10.34 ГБ

В этой теме нет новых непрочитанных сообщений. Авторитет / Juice [триллер, драма, криминал, 1992] HDRip, Dvo

salma3

10 | 1

1.45 ГБ

В этой теме нет новых непрочитанных сообщений. Авторитет / Juice [триллер, драма, криминал, 1992] BDRip 720p, Dvo

salma3

0 | 0

4.52 ГБ

В этой теме нет новых непрочитанных сообщений. Бешеные псы / Reservoir Dogs [триллер, драма, криминал, 1992] BDRemux 1080p, Mvo

salma3

7 | 12

24.42 ГБ

В этой теме нет новых непрочитанных сообщений. Дженнифер 8 / Jennifer Eight [Триллер, детектив, драма, криминал, 1992] BDRemux 1080p, Mvo+Dvo+Avo+Sub

salma3

2 | 9

34.99 ГБ

В этой теме нет новых непрочитанных сообщений. Дженнифер 8 / Jennifer Eight [Триллер, драма, криминал, детектив, 1992] BDRip 1080p, Mvo

salma3

41 | 33

21.39 ГБ

В этой теме нет новых непрочитанных сообщений. Плохой лейтенант / Bad Lieutenant [триллер, драма, криминал, 1992] BDRip 1080p, Mvo

salma3

46 | 37

9.35 ГБ


Начать новую тему Ответить на тему  [ 1 сообщение ] 




Для Мосгорсуда, Роскомнадзора и рекламодателей:: mosgorsud-torrent[собачка]yandex.ru
cron