Торрент файл
скачать торрент магнет ссылка Добавлен: 08 дек 2016, 19:46
Размер: 17.22 ГБ
Сидеров: 74
Личеров: 15
Автор

СообщениеДобавлено: 08 дек 2016, 19:46 

Не в сети
Дата регистрации:
28 сен 2016, 18:10
Спасибо: 216 / 0
Сообщения: 1996
Информация о фильме
Название: Только правда
Оригинальное название: The Whole Truth
Год выхода: 2016
Жанр: Триллер, драма
Режиссер: Кортни Хант
В ролях: Киану Ривз, Рене Зеллвегер, Гугу Мбата-Роу, Шон Бриджерс, Джеймс Белуши, Кеннет Чои, Гэбриел Бассо, Кристофер Берри, Томас Мерфи, Лара Грайс
О фильме:
Судебный процесс, подростка обвиняют в убийстве отца, который грубо обращался со своей супругой. На защиту встает семейный юрист, который умело выполняет свое дело, но в итоге выясняется, что все совершенно не так как кажется...

Страна: США
Студия: Atlas Entertainment
Продолжительность: 01:33:50
Перевод: Любительский многоголосый (закадровый) | Студия пиратского дубляжа
Файл
Кодек: MPEG-4
Качество: BDRemux 1080p
Видео: 1920x1080, 22.3 Mbit/s, 23.976 fps
Звук:
Аудио #01: 48 kHz, AC3, 5.1, 640 Kbps | СПД |
Аудио #02: 48 kHz, DTS-HD MA, 5.1, 3379 kbps | Оригинал |
Субтитры: Английские
General
Unique ID : 182426321926924050156888340262846393805 (0x893E081738FCDC17B765B7A136D2EDCD)
Complete name : G:VideoThe.Whole.Truth.2016.MVO.BDREMUX.1080p.ExKinoRay.mkv
Format : Matroska
Format version : Version 4 / Version 2
File size : 17.2 GiB
Duration : 1 h 33 min
Overall bit rate mode : Variable
Overall bit rate : 26.3 Mb/s
Movie name : The.Whole.Truth.2016 ***селезень***
Encoded date : UTC 2016-12-01 07:52:36
Writing application : mkvmerge v8.3.0 ('Over the Horizon') 64bit
Writing library : libebml v1.3.1 + libmatroska v1.4.2
Video
ID : 1
Format : AVC
Format/Info : Advanced Video Codec
Format profile : High@L4.1
Format settings, CABAC : Yes
Format settings, ReFrames : 3 frames
Codec ID : V_MPEG4/ISO/AVC
Duration : 1 h 33 min
Bit rate mode : Variable
Bit rate : 22.3 Mb/s
Maximum bit rate : 35.0 Mb/s
Width : 1 920 pixels
Height : 1 080 pixels
Display aspect ratio : 16:9
Frame rate mode : Constant
Frame rate : 23.976 (24000/1001) FPS
Standard : NTSC
Color space : YUV
Chroma subsampling : 4:2:0
Bit depth : 8 bits
Scan type : Progressive
Bits/(Pixel*Frame) : 0.449
Stream size : 14.6 GiB (85%)
Title : The.Whole.Truth.2016 ***селезень***
Language : English
Default : Yes
Forced : No
Color range : Limited
Color primaries : BT.709
Transfer characteristics : BT.709
Matrix coefficients : BT.709
Audio #1
ID : 2
Format : AC-3
Format/Info : Audio Coding 3
Mode extension : CM (complete main)
Format settings, Endianness : Big
Codec ID : A_AC3
Duration : 1 h 33 min
Bit rate mode : Constant
Bit rate : 640 kb/s
Channel(s) : 6 channels
Channel positions : Front: L C R, Side: L R, LFE
Sampling rate : 48.0 kHz
Frame rate : 31.250 FPS (1536 spf)
Bit depth : 16 bits
Compression mode : Lossy
Stream size : 428 MiB (2%)
Title : MVO [SPD]
Language : Russian
Default : Yes
Forced : No
Audio #2
ID : 3
Format : DTS
Format/Info : Digital Theater Systems
Format profile : MA / Core
Mode : 16
Format settings, Endianness : Big
Codec ID : A_DTS
Duration : 1 h 33 min
Bit rate mode : Variable / Constant
Bit rate : 3 379 kb/s / 1 509 kb/s
Channel(s) : 6 channels
Channel positions : Front: L C R, Side: L R, LFE
Sampling rate : 48.0 kHz
Frame rate : 93.750 FPS (512 spf)
Bit depth : 24 bits
Compression mode : Lossless / Lossy
Stream size : 2.21 GiB (13%)
Title : Original
Language : English
Default : No
Forced : No
Text
ID : 4
Format : UTF-8
Codec ID : S_TEXT/UTF8
Codec ID/Info : UTF-8 Plain Text
Duration : 1 h 26 min
Bit rate : 62 b/s
Count of elements : 1247
Stream size : 39.6 KiB (0%)
Title : Full
Language : English
Default : No
Forced : No
Menu
00:00:00.000 : en:Chapter 01
00:11:46.038 : en:Chapter 02
00:21:55.605 : en:Chapter 03
00:35:39.178 : en:Chapter 04
00:47:48.115 : en:Chapter 05
00:58:18.661 : en:Chapter 06
01:10:01.655 : en:Chapter 07
01:21:45.108 : en:Chapter 08


Релиз от: Автор релиза:



Вернуться к началу
 Профиль Отправить личное сообщение  
 
   Похожие торренты   Автор   Торрент   Размер 
В этой теме нет новых непрочитанных сообщений. Абсолютная власть / Imperium (Триллер, драма, криминал, 2016) BDRemux 1080p от ExKinoRay | L

marya111

0 | 0

26.25 ГБ

В этой теме нет новых непрочитанных сообщений. Союзники / Allied (Боевик, триллер, драма, мелодрама, военный, 2016) BDRemux 1080p от ExKinoRay | L

marya111

165 | 90

28.5 ГБ

В этой теме нет новых непрочитанных сообщений. Прибытие / Arrival ( Фантастика, триллер, драма, детектив, экранизация, 2016) BDRemux 1080p от ExKinoRay | D, L, A | iTunes

marya111

799 | 353

27.5 ГБ

В этой теме нет новых непрочитанных сообщений. Афера под прикрытием / The Infiltrator (Триллер, драма, криминал, биография, 2016) BDRemux 1080p от ExKinoRay | RUS Transfer | Лицензия

marya111

82 | 36

20.62 ГБ

В этой теме нет новых непрочитанных сообщений. Кровный отец / Blood Father (Боевик, триллер, 2016) BDRemux 1080p от ExKinoRay | A, L

marya111

0 | 0

19.81 ГБ

В этой теме нет новых непрочитанных сообщений. Бен-Гур / Ben-Hur (Драма, приключения, история, 2016) BDRemux 1080p от ExKinoRay | iTunes

marya111

66 | 15

29.6 ГБ

В этой теме нет новых непрочитанных сообщений. Неоновый демон / The Neon Demon (Ужасы, триллер, 2016) BDRemux 1080p от ExKinoRay | D, A | iTunes

marya111

5 | 1

28.42 ГБ


Начать новую тему Ответить на тему  [ 1 сообщение ] 




Для Мосгорсуда, Роскомнадзора и рекламодателей:: mosgorsud-torrent[собачка]yandex.ru
cron