Торрент файл
скачать торрент магнет ссылка Добавлен: 05 дек 2016, 22:01
Размер: 7.75 ГБ
Сидеров: 47
Личеров: 10
Статус: (salma3)
Автор

СообщениеДобавлено: 05 дек 2016, 22:01 

Не в сети
Супермодератор
Аватара пользователя
Дата регистрации:
15 фев 2012, 16:44
Возраст: 28
Спасибо: 6468 / 2129
Сообщения: 40878
Год выхода: 1993
Жанр: боевик, триллер, драма, криминал, детектив
Режиссер: Вольфганг Петерсен
Выпущено: США
Продолжительность: 02:08:36
Перевод: Дублированный, Профессиональный (многоголосый закадровый), Авторский (одноголосый закадровый)

В ролях: Клинт Иствуд, Джон Малкович, Рене Руссо, Дилан МакДермотт, Гэри Коул, Фред Долтон Томпсон, Джон Махони, Грегори Алан Уильямс, Джим Кёрли, Сэлли Хьюз
[/list]

Сюжет фильма
    В тот злополучный день, когда в Далласе был убит президент Кеннеди, Фрэнк Хорриган находился среди охраны. Воспоминания о невыполненной миссии уже много лет не дают ему спать спокойно.
    Спустя 30 лет маньяк-психопат, угрожающий убить президента, выбирает Фрэнка мишенью для преследования. И в этой опасной игре только сила воли решит, кто останется в живых…


Файл
    Качество: BDRip 720p (исходник Blu-Ray Disc Remux)
    Формат: MKV
    Видео: 1280x534, 5688 Кбит/сек, 23,976 кадр/сек, AVC, x264, High@L4.1, 2.40:1, 0.347 Бит/[Пиксели*Кадры]
    Аудио 1: AC-3, 640 Кбит/сек, 6 канала(ов), 48,0 КГц - Дублированный / Русский
    Аудио 2: AC-3, 192 Кбит/сек, 2 канала(ов), 48,0 КГц - Многоголосый закадровый, ОРТ / Русский
    Аудио 3: AC-3, 448 Кбит/сек, 6 канала(ов), 48,0 КГц - Многоголосый закадровый, Видеосервис / Русский
    Аудио 4: AC-3, 384 Кбит/сек, 6 канала(ов), 48,0 КГц - Одноголосый закадровый, А. Гаврилов / Русский
    Аудио 5: AC-3, 640 Кбит/сек, 6 канала(ов), 48,0 КГц - Одноголосый закадровый, Ю. Живов / Русский
    Аудио 6: AC-3, 640 Кбит/сек, 6 канала(ов), 48,0 КГц - Оригинал / Английский
    Субтитры: Русские | Полные, Английские | Полные
    Форсированные субтитры: Нет
    Чаптеры (Главы): Есть



Автор Рипа: Группа:


Format : Matroska
Format version : Version 2
File size : 7.75 GiB
Duration : 2 h 8 min
Overall bit rate : 8 629 kb/s
Movie name : In the Line of Fire.(1993).BDRip.720p.[envy]
Encoded date : UTC 2016-12-05 14:29:15
Writing application : mkvmerge v5.8.0 ('No Sleep / Pillow') built on Sep 2 2012 15:37:04
Writing library : libebml v1.2.3 + libmatroska v1.3.0
Video
ID : 1
Format : AVC
Format/Info : Advanced Video Codec
Format profile : High@L4.1
Format settings, CABAC : Yes
Format settings, ReFrames : 11 frames
Codec ID : V_MPEG4/ISO/AVC
Duration : 2 h 8 min
Bit rate : 5 688 kb/s
Width : 1 280 pixels
Height : 534 pixels
Display aspect ratio : 2.40:1
Frame rate mode : Constant
Frame rate : 23.976 (24000/1001) FPS
Color space : YUV
Chroma subsampling : 4:2:0
Bit depth : 8 bits
Scan type : Progressive
Bits/(Pixel*Frame) : 0.347
Stream size : 4.95 GiB (64%)
Title : In the Line of Fire.(1993).BDRip.720p.[envy]
Writing library : x264 core 148 r2721 72d53ab
Encoding settings : cabac=1 / ref=11 / deblock=1:-3:-3 / analyse=0x3:0x113 / me=umh / subme=11 / psy=1 / psy_rd=1.00:0.00 / mixed_ref=1 / me_range=32 / chroma_me=1 / trellis=2 / 8x8dct=1 / cqm=0 / deadzone=21,11 / fast_pskip=0 / chroma_qp_offset=-2 / threads=12 / lookahead_threads=1 / sliced_threads=0 / nr=0 / decimate=1 / interlaced=0 / bluray_compat=0 / constrained_intra=0 / bframes=6 / b_pyramid=2 / b_adapt=2 / b_bias=0 / direct=3 / weightb=1 / open_gop=0 / weightp=2 / keyint=240 / keyint_min=23 / scenecut=40 / intra_refresh=0 / rc=2pass / mbtree=0 / bitrate=5688 / ratetol=2.0 / qcomp=0.60 / qpmin=0 / qpmax=69 / qpstep=4 / cplxblur=20.0 / qblur=0.5 / ip_ratio=1.40 / pb_ratio=1.30 / aq=2:0.80
Language : English
Default : Yes
Forced : No
Audio #1
ID : 2
Format : AC-3
Format/Info : Audio Coding 3
Mode extension : CM (complete main)
Format settings, Endianness : Big
Codec ID : A_AC3
Duration : 2 h 8 min
Bit rate mode : Constant
Bit rate : 640 kb/s
Channel(s) : 6 channels
Channel positions : Front: L C R, Side: L R, LFE
Sampling rate : 48.0 kHz
Frame rate : 31.250 FPS (1536 spf)
Compression mode : Lossy
Stream size : 589 MiB (7%)
Title : Dub
Language : Russian
Default : Yes
Forced : No
Audio #2
ID : 3
Format : AC-3
Format/Info : Audio Coding 3
Mode extension : CM (complete main)
Format settings, Endianness : Big
Codec ID : A_AC3
Duration : 2 h 8 min
Bit rate mode : Constant
Bit rate : 192 kb/s
Channel(s) : 2 channels
Channel positions : Front: L R
Sampling rate : 48.0 kHz
Frame rate : 31.250 FPS (1536 spf)
Compression mode : Lossy
Stream size : 177 MiB (2%)
Title : MVO OPT
Language : Russian
Default : No
Forced : No
Audio #3
ID : 4
Format : AC-3
Format/Info : Audio Coding 3
Mode extension : CM (complete main)
Format settings, Endianness : Big
Codec ID : A_AC3
Duration : 2 h 8 min
Bit rate mode : Constant
Bit rate : 448 kb/s
Channel(s) : 6 channels
Channel positions : Front: L C R, Side: L R, LFE
Sampling rate : 48.0 kHz
Frame rate : 31.250 FPS (1536 spf)
Compression mode : Lossy
Stream size : 412 MiB (5%)
Title : MVO Видеосервис
Language : Russian
Default : No
Forced : No
Audio #4
ID : 5
Format : AC-3
Format/Info : Audio Coding 3
Mode extension : CM (complete main)
Format settings, Endianness : Big
Codec ID : A_AC3
Duration : 2 h 8 min
Bit rate mode : Constant
Bit rate : 384 kb/s
Channel(s) : 6 channels
Channel positions : Front: L C R, Side: L R, LFE
Sampling rate : 48.0 kHz
Frame rate : 31.250 FPS (1536 spf)
Compression mode : Lossy
Stream size : 353 MiB (4%)
Title : AVO Гаврилов
Language : Russian
Default : No
Forced : No
Audio #5
ID : 6
Format : AC-3
Format/Info : Audio Coding 3
Mode extension : CM (complete main)
Format settings, Endianness : Big
Codec ID : A_AC3
Duration : 2 h 8 min
Bit rate mode : Constant
Bit rate : 640 kb/s
Channel(s) : 6 channels
Channel positions : Front: L C R, Side: L R, LFE
Sampling rate : 48.0 kHz
Frame rate : 31.250 FPS (1536 spf)
Compression mode : Lossy
Stream size : 589 MiB (7%)
Title : AVO Живов
Language : Russian
Default : No
Forced : No
Audio #6
ID : 7
Format : AC-3
Format/Info : Audio Coding 3
Mode extension : CM (complete main)
Format settings, Endianness : Big
Codec ID : A_AC3
Duration : 2 h 8 min
Bit rate mode : Constant
Bit rate : 640 kb/s
Channel(s) : 6 channels
Channel positions : Front: L C R, Side: L R, LFE
Sampling rate : 48.0 kHz
Frame rate : 31.250 FPS (1536 spf)
Compression mode : Lossy
Stream size : 589 MiB (7%)
Title : Eng
Language : English
Default : No
Forced : No
Text #1
ID : 8
Format : UTF-8
Codec ID : S_TEXT/UTF8
Codec ID/Info : UTF-8 Plain Text
Title : Rus full
Language : Russian
Default : No
Forced : No
Text #2
ID : 9
Format : UTF-8
Codec ID : S_TEXT/UTF8
Codec ID/Info : UTF-8 Plain Text
Title : Eng full
Language : English
Default : No
Forced : No
Menu
00:00:00.000 : :Chapter 01
00:07:25.278 : :Chapter 02
00:11:48.082 : :Chapter 03
00:15:07.114 : :Chapter 04
00:23:37.457 : :Chapter 05
00:32:09.385 : :Chapter 06
00:40:56.787 : :Chapter 07
00:48:47.633 : :Chapter 08
00:56:36.351 : :Chapter 09
01:07:43.434 : :Chapter 10
01:12:28.385 : :Chapter 11
01:20:42.796 : :Chapter 12
01:35:50.202 : :Chapter 13
01:52:22.777 : :Chapter 14
01:54:12.095 : :Chapter 15
01:57:39.469 : :Chapter 16



_________________
Проголосуй за трекер Открытый торрент трекер - RUS-MEDIA.ORG

Проголосуй Открытый торрент трекер - RUS-MEDIA.ORG



реклама партнёра


Вернуться к началу
 Профиль Отправить личное сообщение  
 
   Похожие торренты   Автор   Торрент   Размер 
В этой теме нет новых непрочитанных сообщений. Остров огня / Island of fire [Боевик, драма, криминал, 1990] BDRip 1080p, Mvo+Avo+Sub

salma3

41 | 7

6.35 ГБ

В этой теме нет новых непрочитанных сообщений. Убийца / Sicario (Дени Вильнёв) [Боевик, триллер, драма, криминал, детектив, 2015] BDRip 720p, dub [Line]

Dracon

7617 | 958

4.53 ГБ

В этой теме нет новых непрочитанных сообщений. На линии огня / Ligne de mire [Триллер, драма, 2014] HDTV 1080i, Mvo

salma3

53 | 10

6.45 ГБ

В этой теме нет новых непрочитанных сообщений. Расплата / The Accountant (боевик, триллер, драма, криминал, 2016) BDRip 720p от Scarabey | Line

marya111

2788 | 424

5.39 ГБ

В этой теме нет новых непрочитанных сообщений. Идущий по линии / Shi tu xing zhe / Line Walker [боевик, триллер, 2016] HDRip, Dvo

salma3

823 | 165

1.42 ГБ

В этой теме нет новых непрочитанных сообщений. Нерв / Nerve [триллер, криминал, детектив, приключения, 2016] BDRip 720p, Dub [Line]

salma3

1461 | 465

4.28 ГБ

В этой теме нет новых непрочитанных сообщений. Восходящее солнце / Rising Sun [Боевик, триллер, драма, криминал, детектив, 1993] BDRip 1080p, Mvo

salma3

48 | 51

9.32 ГБ


Начать новую тему Ответить на тему  [ 1 сообщение ] 




Для Мосгорсуда, Роскомнадзора и рекламодателей:: mosgorsud-torrent[собачка]yandex.ru