Торрент файл
скачать торрент магнет ссылка Добавлен: 05 дек 2016, 16:53
Размер: 4.37 ГБ
Сидеров: 743
Личеров: 51
Статус: (salma3)
Автор

СообщениеДобавлено: 05 дек 2016, 16:53 

Не в сети
Супермодератор
Аватара пользователя
Дата регистрации:
15 фев 2012, 16:44
Возраст: 28
Спасибо: 6644 / 2146
Сообщения: 45843
Перевод: Профессиональный (полное дублирование)
Субтитры: Русские, английские
Формат: BDRip, MKV, H.264, AC3
Страна: Великобритания, США
Режиссер: Дэнни Бойл
Жанр: фантастика, триллер, приключения
Продолжительность: 01:47:27
Год выпуска: 2007

В ролях: Киллиан Мёрфи, Роуз Бирн, Клифф Кёртис, Мишель Йео, Крис Эванс, Хироюки Санада, Марк Стронг, Трой Гэрити, Бенедикт Вонг, Чипо Чанг

Описание: 2057 год. Солнце погибает, и человечество встает перед лицом вымирания. Последняя надежда планеты Земля связана с «Икаром 2» — космическим кораблем, экипаж которого состоит из восьми мужчин и женщин во главе с капитаном Канедой. Их миссия — доставить ядерный заряд, с помощью которого предполагается повторно воспламенить гаснущее Солнце.
Во время своего путешествия, находясь далеко в космическом безмолвии, в отсутствии какого-либо радиоконтакта с Землей, экипаж слышит слабые позывные сигналы с космического корабля «Икар 1», который пропал, выполняя семь лет назад ту же самую миссию, что и «Икар 2». Ужасная катастрофа ввергает миссию в очень опасную и рискованную ситуацию, и скоро команда обнаруживает, что вынуждена бороться не только за свои собственные жизни и душевное равновесие, но и за будущее всех нас…




Видео: 1920x800p (2.40:1), 23.976 fps, AVC MPEG-4 (H.264), ~5375 kbps, 0.146 bit/pixel
Аудио: Русский: 48 kHz, AC3 Dolby Digital, 6 ch, ~448 kbps [Профессиональный (полное дублирование)]

Общее
Уникальный идентификатор : 192235510955709847747953272948091371140 (0x909F367302A4559BA3E98CC4F625BE84)
Полное имя : Sunshine.2007.BDRip.1080p.Rus.mkv
Формат : Matroska
Версия формата : Version 2
Размер файла : 4,37 Гбайт
Продолжительность : 1 ч. 47 м.
Общий поток : 5824 Кбит/сек
Дата кодирования : UTC 2011-09-06 21:04:57
Программа кодирования : mkvmerge v4.0.0 ('The Stars were mine') сборка от Jun 6 2010 16:18:42
Библиотека кодирования : libebml v1.0.0 + libmatroska v1.0.0

Видео
Идентификатор : 1
Формат : AVC
Формат/Информация : Advanced Video Codec
Профиль формата :
Параметр CABAC формата : Да
Параметр ReFrames формата : 5 кадров
Идентификатор кодека : V_MPEG4/ISO/AVC
Продолжительность : 1 ч. 47 м.
Битрейт : 5375 Кбит/сек
Ширина : 1920 пикселей
Высота : 800 пикселей
Соотношение сторон : 2,40:1
Частота кадров : 23,976 кадра/сек
Цветовое пространство : YUV
Субдискретизация насыщенности : 4:2:0
Битовая глубина : 8 бит
Тип развёртки : Прогрессивная
Бит/(Пиксели*Кадры) : 0.146
Размер потока : 3,95 Гбайт (90%)
Библиотека кодирования : x264 core 116 r2074 2641b9e
Настройки программы : cabac=1 / ref=5 / deblock=1:0:0 / analyse=0x3:0x133 / me=umh / subme=10 / psy=1 / psy_rd=1.00:0.10 / mixed_ref=1 / me_range=32 / chroma_me=1 / trellis=2 / 8x8dct=1 / cqm=0 / deadzone=21,11 / fast_pskip=0 / chroma_qp_offset=-3 / threads=12 / sliced_threads=0 / nr=0 / decimate=1 / interlaced=0 / bluray_compat=0 / constrained_intra=0 / bframes=5 / b_pyramid=2 / b_adapt=2 / b_bias=0 / direct=3 / weightb=1 / open_gop=0 / weightp=2 / keyint=250 / keyint_min=23 / scenecut=40 / intra_refresh=0 / rc_lookahead=60 / rc=2pass / mbtree=1 / bitrate=5375 / ratetol=1.0 / qcomp=0.60 / qpmin=0 / qpmax=69 / qpstep=4 / cplxblur=20.0 / qblur=0.5 / ip_ratio=1.40 / aq=1:1.00
Язык : English

Аудио
Идентификатор : 2
Формат : AC-3
Формат/Информация : Audio Coding 3
Расширение режима : CM (complete main)
Идентификатор кодека : A_AC3
Продолжительность : 1 ч. 47 м.
Вид битрейта : Постоянный
Битрейт : 448 Кбит/сек
Каналы : 6 каналов
Расположение каналов : Front: L C R, Side: L R, LFE
Частота : 48,0 КГц
Битовая глубина : 16 бит
Метод сжатия : С потерями
Размер потока : 344 Мбайт (8%)
Язык : Russian

Текст #1
Идентификатор : 3
Формат : UTF-8
Идентификатор кодека : S_TEXT/UTF8
Идентификатор кодека/Информация : UTF-8 Plain Text
Язык : Russian

Текст #2
Идентификатор : 4
Формат : UTF-8
Идентификатор кодека : S_TEXT/UTF8
Идентификатор кодека/Информация : UTF-8 Plain Text
Язык : English

Меню
00:00:00.000 : :Chapter 01
00:04:08.331 : :Chapter 02
00:08:11.574 : :Chapter 03
00:12:42.261 : :Chapter 04
00:21:24.408 : :Chapter 05
00:24:58.246 : :Chapter 06
00:35:16.239 : :Chapter 07
00:39:16.312 : :Chapter 08
00:47:03.946 : :Chapter 09
00:52:58.341 : :Chapter 10
00:56:26.299 : :Chapter 11
01:04:06.551 : :Chapter 12
01:05:41.854 : :Chapter 13
01:11:23.946 : :Chapter 14
01:17:06.663 : :Chapter 15
01:24:37.989 : :Chapter 16
01:30:37.598 : :Chapter 17
01:34:22.365 : :Chapter 18
01:39:33.467 : :Chapter 19
01:40:53.422 : :Chapter 20
01:47:28.233 : :Chapter 21





_________________
Проголосуй за трекер Открытый торрент трекер - RUS-MEDIA.ORG

Проголосуй Открытый торрент трекер - RUS-MEDIA.ORG



реклама партнёра


Вернуться к началу
 Профиль Отправить личное сообщение  
 
   Похожие торренты   Автор   Торрент   Размер 
В этой теме нет новых непрочитанных сообщений. Пекло / Sunshine [фантастика, триллер, приключения, 2007] HDRip, Dub

salma3

76 | 3

1.45 ГБ

В этой теме нет новых непрочитанных сообщений. Суперпес / Underdog [Фантастика, приключения, семейный, 2007] BDRip 1080p, Dub+Sub

salma3

45 | 21

8.17 ГБ

В этой теме нет новых непрочитанных сообщений. Адское пекло / Meltdown: Days of destruction [фантастика, боевик, триллер, 2006] DVDRip, Mvo

salma3

57 | 2

1.46 ГБ

В этой теме нет новых непрочитанных сообщений. Адское пекло: Дни разрушений / Meltdown: Days of destruction [Фантастика боевик, триллер, 2006] DVDRip, Mvo

salma3

95 | 20

1.37 ГБ

В этой теме нет новых непрочитанных сообщений. Сигнал / The Signal [ужасы, фантастика, триллер, 2007] BDRip 1080p, Dvo

salma3

69 | 30

10.94 ГБ

В этой теме нет новых непрочитанных сообщений. Звездные врата: Атлантида / Stargate: Atlantis [S04] [Фантастика, боевик, приключения, 2007-2008] BDRip 1080p, Mvo [ТВ3]

salma3

11 | 7

79.5 ГБ

В этой теме нет новых непрочитанных сообщений. Пророк / Next [Фантастика, боевик, триллер, 2007] BDRip 1080p, Dub [Open Matte]

salma3

79 | 6

8.34 ГБ


Начать новую тему Ответить на тему  [ 1 сообщение ] 




Для Мосгорсуда, Роскомнадзора и рекламодателей:: mosgorsud-torrent[собачка]yandex.ru