Торрент файл
скачать торрент магнет ссылка Добавлен: 01 дек 2016, 23:57
Размер: 3.11 ГБ
Сидеров: 537
Личеров: 78
Статус: (salma3)
Автор

СообщениеДобавлено: 01 дек 2016, 23:57 

Не в сети
Супермодератор
Аватара пользователя
Дата регистрации:
15 фев 2012, 16:44
Возраст: 28
Спасибо: 7290 / 2147
Сообщения: 70396
Год выхода: 2016
Жанр: драма, мелодрама, комедия
Режиссер: Жюстин Трие

В ролях: Виржини Эфира, Венсан Лакост, Мельвиль Пупо, Лоран Пуатрено, Лорэ Кэлами, Alice Daquet, Жюли Мулье, Elsa Wolliaston, Софи Фийер, Liv Harari

О фильме: Виктория пытается начать новую жизнь — взять себя в руки, разобраться с любовниками, больше спать и лучше питаться. Только вот бывший, обратившийся к ней за помощью, не помогает навести порядок. А другой возлюбленный, возомнивший себя популярным писателем, посвящает всю сеть в подробности ее интимной жизни.



Выпущено: Франция
Продолжительность: 01:35:59
Озвучивание: Профессиональное (многоголосое) [iTunes]
Релиз без рекламы!

Файл
Формат: MKV (x264)
Качество: WEB-DL 720p
Видео: 4091 kb/s, 1280x536
Аудио: Russian: AAC, 156 kb/s (2 ch) / AC3, 384 kb/s (6 ch)

Format : Matroska
Format version : Version 2
File size : 3.11 GiB
Duration : 1 h 35 min
Overall bit rate : 4 637 kb/s
Encoded date : UTC 2016-11-30 19:06:41
Writing application : mkvmerge v8.3.0 ('Over the Horizon') 64bit
Writing library : libebml v1.3.1 + libmatroska v1.4.2
Video #1
ID : 2
Format : AVC
Format/Info : Advanced Video Codec
Format profile : Main@L3.1
Format settings, CABAC : No
Format settings, ReFrames : 2 frames
Codec ID : V_MPEG4/ISO/AVC
Duration : 1 h 35 min
Bit rate : 4 091 kb/s
Width : 1 280 pixels
Height : 536 pixels
Display aspect ratio : 2.40:1
Frame rate mode : Constant
Frame rate : 24.000 FPS
Color space : YUV
Chroma subsampling : 4:2:0
Bit depth : 8 bits
Scan type : Progressive
Bits/(Pixel*Frame) : 0.248
Stream size : 2.74 GiB (88%)
Language : English
Default : Yes
Forced : No
Color range : Limited
Color primaries : BT.709
Transfer characteristics : BT.709
Matrix coefficients : BT.709
Video #2
ID : 3
Format : V_QUICKTIME
Codec ID : V_QUICKTIME
Duration : 1 h 33 min
Bit rate : 3 799 b/s
Width : 640 pixels
Height : 268 pixels
Display aspect ratio : 2.40:1
Frame rate mode : Constant
Frame rate : 0.002 FPS
Bits/(Pixel*Frame) : 11.075
Stream size : 2.53 MiB (0%)
Default : No
Forced : No
Audio #1
ID : 1
Format : AAC
Format/Info : Advanced Audio Codec
Format profile : LC
Codec ID : A_AAC
Duration : 1 h 35 min
Bit rate : 156 kb/s
Channel(s) : 2 channels
Channel positions : Front: L R
Sampling rate : 48.0 kHz
Frame rate : 46.875 FPS (1024 spf)
Compression mode : Lossy
Stream size : 107 MiB (3%)
Language : Russian
Default : Yes
Forced : No
Audio #2
ID : 4
Format : AC-3
Format/Info : Audio Coding 3
Mode extension : CM (complete main)
Format settings, Endianness : Big
Codec ID : A_AC3
Duration : 1 h 35 min
Bit rate mode : Constant
Bit rate : 384 kb/s
Channel(s) : 6 channels
Channel positions : Front: L C R, Side: L R, LFE
Sampling rate : 48.0 kHz
Frame rate : 31.250 FPS (1536 spf)
Compression mode : Lossy
Stream size : 264 MiB (8%)
Language : Russian
Default : No
Forced : No
Menu
00:00:00.000 : en:Глава 1
00:07:01.500 : en:Глава 2
00:13:51.041 : en:Глава 3
00:20:20.999 : en:Глава 4
00:28:25.707 : en:Глава 5
00:36:00.832 : en:Глава 6
00:43:03.373 : en:Глава 7
00:49:58.831 : en:Глава 8
00:56:52.456 : en:Глава 9
01:04:45.956 : en:Глава 10
01:11:28.122 : en:Глава 11
01:18:12.622 : en:Глава 12
01:25:59.580 : en:Глава 13



_________________
Проголосуй за трекер Открытый торрент трекер - RUS-MEDIA.ORG

Проголосуй Открытый торрент трекер - RUS-MEDIA.ORG


Вернуться к началу
 Профиль Отправить личное сообщение  
 
   Похожие торренты   Автор   Торрент   Размер 
В этой теме нет новых непрочитанных сообщений. В постели с Викторией / Victoria [драма, мелодрама, комедия, 2016] WEB-DL 1080p, Mvo [iTunes]

salma3

142 | 36

3.34 ГБ

В этой теме нет новых непрочитанных сообщений. В постели с Викторией / Victoria [Драма, мелодрама, комедия, 2016] WEB-DLRip, Mvo [iTunes]

salma3

126 | 19

745.39 МБ

В этой теме нет новых непрочитанных сообщений. В постели с Викторией / Victoria [драма, мелодрама, комедия, 2016] BDRip, Mvo [iTunes]

salma3

626 | 242

1.42 ГБ

В этой теме нет новых непрочитанных сообщений. Недооформлен В постели с Викторией / Victoria (драма, мелодрама, комедия, 2016) TS | P Данный торрент является блокированным, причина: недооформленный торрент

marya111

0 | 0

1.37 ГБ

В этой теме нет новых непрочитанных сообщений. В постели с Викторией / Victoria (2016) BDRip от MegaPeer | iTunes

marya111

149 | 16

745.38 МБ

В этой теме нет новых непрочитанных сообщений. Лa-Лa Лeнд / Lа Lа Lаnd [мюзикл, драма, мелодрама, комедия, 2016] BDRip 720p, Dub [iTunes]

salma3

105 | 61

8.11 ГБ

В этой теме нет новых непрочитанных сообщений. Вне правил / Rules Don't Apply [Драма, мелодрама, комедия, 2016] BDRip 720p, Mvo [iTunes]

salma3

97 | 69

6.11 ГБ


Начать новую тему Ответить на тему  [ 1 сообщение ] 




Для Мосгорсуда, Роскомнадзора и рекламодателей:: mosgorsud-torrent[собачка]yandex.ru
cron