Торрент файл
скачать торрент магнет ссылка Добавлен: 01 дек 2016, 13:49
Размер: 3.34 ГБ
Сидеров: 142
Личеров: 36
Статус: (salma3)
Автор

СообщениеДобавлено: 01 дек 2016, 13:49 

В сети
Супермодератор
Аватара пользователя
Дата регистрации:
15 фев 2012, 16:44
Возраст: 29
Спасибо: 7377 / 2147
Сообщения: 75902
Год выпуска: 2016
Жанр: драма, мелодрама, комедия
Режиссер: Жюстин Трие

В ролях: Виржини Эфира, Венсан Лакост, Мельвиль Пупо, Лоран Пуатрено, Лорэ Кэлами, Alice Daquet, Жюли Мулье Elsa Wolliaston, Софи Фийер

Описание:
Виктория пытается начать новую жизнь – взять себя в руки, разобраться с любовниками, больше спать и лучше питаться. Только вот бывший, обратившийся к ней за помощью, не помогает навести порядок. А другой возлюбленный, возомнивший себя популярным писателем, посвящает всю сеть в подробности ее интимной жизни.

Рейтинг на IMDB: 6,6/10
Рейтинг на КиноПоиск.Ru: 6.108

Страна: Франция
Продолжительность: 01:35:59
Перевод: Профессиональный (многоголосый, закадровый)[iTunes]

Формат: WEBRip, MKV, H.264, AC3
Видео: 1920x804p (2,40:1), 24 fps, AVC MPEG-4 (x264), , ~ 4492 kbps avg, 0.121 bit/pixel
Аудио: Русский: 48 kHz, AC3, 3/2 (L,C,R,l,r) + LFE ch, ~384.00 kbps avg

Общее
Уникальный идентификатор : 253586167439736360681009755894980651275 (0xBEC6EB59918FC3B6A23BEA3D20CDA90B)
Полное имя : E:\Victoria.WEB-DL.1080p.mkv
Формат : Matroska
Версия формата : Version 2
Размер файла : 3,34 Гбайт
Продолжительность : 1 ч. 35 м.
Общий поток : 4975 Кбит/сек
Дата кодирования : UTC 2016-12-01 07:18:53
Программа кодирования : mkvmerge v5.6.0 ('Kenya Kane') built on May 27 2012 16:44:04
Библиотека кодирования : libebml v1.2.3 + libmatroska v1.3.0

Видео
Идентификатор : 1
Формат : AVC
Формат/Информация : Advanced Video Codec
Профиль формата :
Параметр CABAC формата : Да
Параметр ReFrames формата : 5 кадров
Идентификатор кодека : V_MPEG4/ISO/AVC
Продолжительность : 1 ч. 35 м.
Битрейт : 4492 Кбит/сек
Ширина : 1920 пикселей
Высота : 804 пикселя
Соотношение сторон : 2,40:1
Режим частоты кадров : Постоянный
Частота кадров : 24,000 кадра/сек
Цветовое пространство : YUV
Субдискретизация насыщенности : 4:2:0
Битовая глубина : 8 бит
Тип развёртки : Прогрессивная
Бит/(Пиксели*Кадры) : 0.121
Размер потока : 3,01 Гбайт (90%)
Язык : English
Default : Да
Forced : Нет
Основные цвета : BT.709
Характеристики трансфера : BT.709
Коэффициенты матрицы : BT.709

Аудио
Идентификатор : 2
Формат : AC-3
Формат/Информация : Audio Coding 3
Расширение режима : CM (complete main)
Параметр Endianness формата : Big
Режим смешивания : Header stripping
Идентификатор кодека : A_AC3
Продолжительность : 1 ч. 35 м.
Вид битрейта : Постоянный
Битрейт : 384 Кбит/сек
Каналы : 6 каналов
Расположение каналов : Front: L C R, Side: L R, LFE
Частота : 48,0 КГц
Битовая глубина : 16 бит
Метод сжатия : С потерями
Размер потока : 264 Мбайт (8%)
Язык : Russian
Default : Да
Forced : Нет

Меню
00:00:00.000 : en:1
00:07:01.500 : en:2
00:13:51.041 : en:3
00:20:20.999 : en:4
00:28:25.707 : en:5
00:36:00.832 : en:6
00:43:03.373 : en:7
00:49:58.831 : en:8
00:56:52.456 : en:9
01:04:45.956 : en:10
01:11:28.122 : en:11
01:18:12.622 : en:12
01:25:59.580 : en:13



_________________
Проголосуй за трекер Открытый торрент трекер - RUS-MEDIA.ORG

Проголосуй Открытый торрент трекер - RUS-MEDIA.ORG


Вернуться к началу
 Профиль Отправить личное сообщение  
 
   Похожие торренты   Автор   Торрент   Размер 
В этой теме нет новых непрочитанных сообщений. В постели с Викторией / Victoria [драма, мелодрама, комедия, 2016] BDRip, Mvo [iTunes]

salma3

626 | 242

1.42 ГБ

В этой теме нет новых непрочитанных сообщений. В постели с Викторией / Victoria [драма, мелодрама, комедия, 2016] WEB-DL 720p, Mvo [iTunes]

salma3

537 | 78

3.11 ГБ

В этой теме нет новых непрочитанных сообщений. В постели с Викторией / Victoria [Драма, мелодрама, комедия, 2016] WEB-DLRip, Mvo [iTunes]

salma3

126 | 19

745.39 МБ

В этой теме нет новых непрочитанных сообщений. Недооформлен В постели с Викторией / Victoria (драма, мелодрама, комедия, 2016) TS | P Данный торрент является блокированным, причина: недооформленный торрент

marya111

0 | 0

1.37 ГБ

В этой теме нет новых непрочитанных сообщений. В постели с Викторией / Victoria (2016) BDRip от MegaPeer | iTunes

marya111

149 | 16

745.38 МБ

В этой теме нет новых непрочитанных сообщений. Их звездный час / Their Finest [драма, мелодрама, комедия, 2016] BDRemux 1080p, Mvo [iTunes]

salma3

12 | 1

18.82 ГБ

В этой теме нет новых непрочитанных сообщений. Москва, я терплю тебя [драма, мелодрама, комедия, 2016] WEB-DL 1080p [iTunes]

salma3

858 | 78

3.46 ГБ


Начать новую тему Ответить на тему  [ 1 сообщение ] 




Для Мосгорсуда, Роскомнадзора и рекламодателей:: mosgorsud-torrent[собачка]yandex.ru
cron