Торрент файл
скачать торрент магнет ссылка Добавлен: 01 дек 2016, 13:34
Размер: 7.48 ГБ
Сидеров: 66
Личеров: 20
Статус: (salma3)
Автор

СообщениеДобавлено: 01 дек 2016, 13:34 

Не в сети
Супермодератор
Аватара пользователя
Дата регистрации:
15 фев 2012, 16:44
Возраст: 29
Спасибо: 7377 / 2147
Сообщения: 75958
Год выхода: 1981
Жанр: Комедия
Режиссер: Джон Дж. Эвилдсен / John G. Avildsen

В ролях: Джон Белуши, Дэн Эйкройд, Кэти Мориарти, Кэтрин Уокер, Тим Казурински, Айгорс Гэйвон, Дрю-Энн Чакрэн, Лорен-Мэри Тэйлор, Тино Инсана

О фильме: Тихий американец спокойно жил со своей семьей в уютном доме, и у него не было особых проблем до тех пор, пока рядом с ним не поселился новый сосед. Этот тип и его сексапильная жена ухитряются превратить мирную жизнь своих соседей в ад...



Страна: США
Студия: Columbia Pictures
Продолжительность: 01:35:09
Перевод #1 : Профессиональный (многоголосый закадровый) - ОРТ
Перевод #2 : Профессиональный (двухголосый закадровый) - НТВ+
Перевод #3 : Авторский (одноголосый закадровый) - Л. Володарский
Перевод #4 : Авторский (одноголосый закадровый) - А. Кашкин
Cубтитры : Английский
Контейнер: MKV
Качество: BDRip 1080p
Видео: MPEG-4 AVC, High@L4.1, 8 959 kb/s, 1 920 x 1 040, 23.976 fps
Аудио1 : Русский (AC3, 2ch, 192 Кбит/сек, 48.0 KHz) MVO (ОРТ)
Аудио2 : Русский (AC3, 2ch, 192 Кбит/сек, 48.0 KHz) DVO (НТВ+)
Аудио3 : Русский (AC3, 2ch, 192 Кбит/сек, 48.0 KHz) AVO (Л. Володарский)
Аудио4 : Русский (AC3, 2ch, 192 Кбит/сек, 48.0 KHz) AVO (А. Кашкин)
Аудио5 : Английский (DTS 2ch, 1 509 Кбит/сек, 48.0 KHz)
Субтитры : English PGS
Навигация по главам: есть
Глобальные тэги: есть
Общее
Уникальный идентификатор : 224029731202306561202461673451865060196 (0xA88A8E88D7BE1415B05A280E282D3364)
Полное имя : E:Соседи Neighbors (1981).mkv
Формат : Matroska
Версия формата : Version 4 / Version 2
Размер файла : 7,48 Гбайт
Продолжительность : 1 ч. 35 м.
Общий поток : 11,2 Мбит/сек
Название фильма : Neighbors
Тип содержимого : Movie
Описание : «Семейные против студентов»
Дата выпуска : 1981-12-18
Дата кодирования : UTC 2016-11-30 12:05:09
Программа кодирования : mkvmerge v9.6.0 ('Slave To Your Mind') 64bit
Библиотека кодирования : libebml v1.3.4 + libmatroska v1.4.5
Обложка : Yes
Attachments : cover.jpg
ACTOR : Джон Белуши, Дэн Эйкройд, Кэти Мориарти, Кэтрин Уокер, Тим Казурински, Айгорс Гэйвон, Дрю-Энн Чакрэн, Лорен-Мэри Тэйлор, Тино ИнсанаKazurinsky, Tino Insana, Henry Judd Baker
ARTIST : Джон Белуши, Дэн Эйкройд, Кэти Мориарти, Кэтрин Уокер, Тим Казурински, Айгорс Гэйвон, Дрю-Энн Чакрэн, Лорен-Мэри Тэйлор, Тино ИнсанаKazurinsky, Tino Insana, Henry Judd Baker
DIRECTOR : Джон Г. Эвилдсен
GENRE : комедия
LAW_RATING : R
PRODUCER : Дэвид Браун, Ричард Д. Занук, Берни Бриллштейн
PRODUCTION_STUDIO : Columbia Pictures
SCREENPLAY_BY : Ларри Гелбарт, Томас Бергер
SUMMARY : «Семейные против студентов»
SYNOPSIS : Как известно, мужчины бывают двух типов: холостые и глубоко женатые. Первые молоды, мускулисты и точно магнит притягивают блондинок и шумных друзей. Вторые обитают дома, выращивают детей и поглощают сериалы по телеку. Обычно их пути не пересекаются. Но стоит им стать соседями, мужчины выходят на тропу войны.
Видео
Идентификатор : 1
Формат : AVC
Формат/Информация : Advanced Video Codec
Профиль формата : High@L4.1
Параметр CABAC формата : Да
Параметр ReFrames формата : 4 кадра
Идентификатор кодека : V_MPEG4/ISO/AVC
Продолжительность : 1 ч. 35 м.
Битрейт : 8959 Кбит/сек
Ширина : 1920 пикселей
Высота : 1040 пикселей
Соотношение сторон : 1,85:1
Режим частоты кадров : Постоянный
Частота кадров : 23,976 (24000/1001) кадра/сек
Цветовое пространство : YUV
Субдискретизация насыщенности : 4:2:0
Битовая глубина : 8 бит
Тип развёртки : Прогрессивная
Бит/(Пиксели*Кадры) : 0.187
Размер потока : 5,95 Гбайт (80%)
Библиотека кодирования : x264 core 148 r2721 72d53ab
Настройки программы : cabac=1 / ref=4 / deblock=1:0:0 / analyse=0x3:0x113 / me=umh / subme=8 / psy=1 / psy_rd=1.00:0.00 / mixed_ref=1 / me_range=16 / chroma_me=1 / trellis=1 / 8x8dct=1 / cqm=0 / deadzone=21,11 / fast_pskip=1 / chroma_qp_offset=-2 / threads=12 / lookahead_threads=2 / sliced_threads=0 / nr=0 / decimate=1 / interlaced=0 / bluray_compat=0 / constrained_intra=0 / bframes=3 / b_pyramid=2 / b_adapt=1 / b_bias=0 / direct=3 / weightb=1 / open_gop=0 / weightp=2 / keyint=240 / keyint_min=23 / scenecut=40 / intra_refresh=0 / rc_lookahead=50 / rc=2pass / mbtree=1 / bitrate=8959 / ratetol=1.0 / qcomp=0.60 / qpmin=0 / qpmax=69 / qpstep=4 / cplxblur=20.0 / qblur=0.5 / vbv_maxrate=62500 / vbv_bufsize=78125 / nal_hrd=none / filler=0 / ip_ratio=1.40 / aq=1:1.00
Default : Да
Forced : Нет
Цветовой диапазон : Limited
Коэффициенты матрицы : BT.709
Аудио #1
Идентификатор : 2
Формат : AC-3
Формат/Информация : Audio Coding 3
Расширение режима : CM (complete main)
Параметр Endianness формата : Big
Идентификатор кодека : A_AC3
Продолжительность : 1 ч. 35 м.
Вид битрейта : Постоянный
Битрейт : 192 Кбит/сек
Каналы : 2 канала
Расположение каналов : Front: L R
Частота : 48,0 КГц
Частота кадров : 31,250 кадров/сек (1536 spf)
Битовая глубина : 16 бит
Метод сжатия : С потерями
Размер потока : 131 Мбайт (2%)
Заголовок : MVO - ОРТ
Язык : Russian
Default : Да
Forced : Нет
Аудио #2
Идентификатор : 3
Формат : AC-3
Формат/Информация : Audio Coding 3
Расширение режима : CM (complete main)
Параметр Endianness формата : Big
Идентификатор кодека : A_AC3
Продолжительность : 1 ч. 35 м.
Вид битрейта : Постоянный
Битрейт : 192 Кбит/сек
Каналы : 2 канала
Расположение каналов : Front: L R
Частота : 48,0 КГц
Частота кадров : 31,250 кадров/сек (1536 spf)
Битовая глубина : 16 бит
Метод сжатия : С потерями
Размер потока : 131 Мбайт (2%)
Заголовок : DVO - НТВ+
Язык : Russian
Default : Нет
Forced : Нет
Аудио #3
Идентификатор : 4
Формат : AC-3
Формат/Информация : Audio Coding 3
Расширение режима : CM (complete main)
Параметр Endianness формата : Big
Идентификатор кодека : A_AC3
Продолжительность : 1 ч. 35 м.
Вид битрейта : Постоянный
Битрейт : 192 Кбит/сек
Каналы : 2 канала
Расположение каналов : Front: L R
Частота : 48,0 КГц
Частота кадров : 31,250 кадров/сек (1536 spf)
Битовая глубина : 16 бит
Метод сжатия : С потерями
Размер потока : 131 Мбайт (2%)
Заголовок : AVO - Л. Володарский
Язык : Russian
Default : Нет
Forced : Нет
Аудио #4
Идентификатор : 5
Формат : AC-3
Формат/Информация : Audio Coding 3
Расширение режима : CM (complete main)
Параметр Endianness формата : Big
Идентификатор кодека : A_AC3
Продолжительность : 1 ч. 35 м.
Вид битрейта : Постоянный
Битрейт : 192 Кбит/сек
Каналы : 2 канала
Расположение каналов : Front: L R
Частота : 48,0 КГц
Частота кадров : 31,250 кадров/сек (1536 spf)
Битовая глубина : 16 бит
Метод сжатия : С потерями
Размер потока : 131 Мбайт (2%)
Заголовок : AVO - А. Кашкин
Язык : Russian
Default : Нет
Forced : Нет
Аудио #5
Идентификатор : 6
Формат : DTS
Формат/Информация : Digital Theater Systems
Режим : 16
Параметр Endianness формата : Big
Идентификатор кодека : A_DTS
Продолжительность : 1 ч. 35 м.
Вид битрейта : Постоянный
Битрейт : 1509 Кбит/сек
Каналы : 2 канала
Расположение каналов : Front: L R
Частота : 48,0 КГц
Частота кадров : 93,750 кадра/сек (512 spf)
Битовая глубина : 24 бит
Метод сжатия : С потерями
Размер потока : 1,00 Гбайт (13%)
Заголовок : DTS
Язык : English
Default : Нет
Forced : Нет
Текст
Идентификатор : 7
Формат : PGS
Режим смешивания : zlib
Идентификатор кодека : S_HDMV/PGS
Идентификатор кодека/Информация : Picture based subtitle format used on BDs/HD-DVDs
Продолжительность : 1 ч. 29 м.
Битрейт : 15,5 Кбит/сек
Count of elements : 2178
Размер потока : 9,89 Мбайт (0%)
Заголовок : PGS
Язык : English
Default : Нет
Forced : Нет
Меню
00:00:00.000 : en:Chapter 01
00:10:00.600 : en:Chapter 02
00:20:01.200 : en:Chapter 03
00:30:01.800 : en:Chapter 04
00:40:02.399 : en:Chapter 05
00:50:03.000 : en:Chapter 06
01:00:03.600 : en:Chapter 07
01:10:04.200 : en:Chapter 08
01:20:04.800 : en:Chapter 09
01:30:05.400 : en:Chapter 10


_________________
Проголосуй за трекер Открытый торрент трекер - RUS-MEDIA.ORG

Проголосуй Открытый торрент трекер - RUS-MEDIA.ORG


Вернуться к началу
 Профиль Отправить личное сообщение  
 
   Похожие торренты   Автор   Торрент   Размер 
В этой теме нет новых непрочитанных сообщений. Соседи / Neighbors [комедия, 1981] BDRemux 1080p, Mvo

salma3

7 | 6

19.44 ГБ

В этой теме нет новых непрочитанных сообщений. Соседи. На тропе войны / Neighbors (Николас Столлер) [2014, комедия, BDRip] Dub

Nickolas3435

2228 | 75

1.37 ГБ

В этой теме нет новых непрочитанных сообщений. Соседи. На тропе войны 2 / Neighbors 2: Sorority Rising [комедия, 2016] BDRip-AVC, Dub [iTunes]

salma3

80 | 11

1.42 ГБ

В этой теме нет новых непрочитанных сообщений. Соседи. На тропе войны 2 / Neighbors 2: Sorority Rising [комедия, 2016] BDRip-AVC, Dub [iTunes]

salma3

112 | 55

2.14 ГБ

В этой теме нет новых непрочитанных сообщений. Соседи. На тропе войны 2 / Neighbors 2: Sorority Rising [комедия, 2016] WEB-DL 1080p, Dub [Line]

salma3

300 | 19

3.08 ГБ

В этой теме нет новых непрочитанных сообщений. Соседи. На тропе войны 2 / Neighbors 2: Sorority Rising [комедия, 2016] WEBDLRip, Mvo

salma3

361 | 17

1.37 ГБ

В этой теме нет новых непрочитанных сообщений. Соседи. На тропе войны 2 / Neighbors 2: Sorority Rising [комедия, 2016] WEB-DLRip, Dub [iTunes]

salma3

1526 | 540

1.45 ГБ


Начать новую тему Ответить на тему  [ 1 сообщение ] 




Для Мосгорсуда, Роскомнадзора и рекламодателей:: mosgorsud-torrent[собачка]yandex.ru
cron